Today is a free download without charge Download

Возвращение Супермена / Superman Returns (Брайан Сингер / Bryan Singer) [2006, США, фантастика, фэнтези, боевик, приключения, BDRip 720p] Dub + Original Eng + Sub (Rus, Eng)

Reply to topic
 
Author
Message

Omen ®

Longevity: 8 years 5 months

Posts: 181087

Торрент-статистика

Post 25-May-2013 02:42

[Quote]

Возвращение Супермена / Superman Returns
Страна: США
Жанр: фантастика, фэнтези, боевик, приключения
Год выпуска: 2006
Продолжительность: 02:34:21-Перевод: Профессиональный (дублированный)
Cубтитры: русские, английские
Оригинальная аудиодорожка: английский-Режиссер: Брайан Сингер / Bryan Singer
В ролях: Брэндон Рут, Кейт Босворт, Кевин Спейси, Джеймс Марсден, Паркер Поузи, Фрэнк Ланджелла, Сэм Хантингтон, Ева Мари Сэйнт, Марлон Брандо, Кэл Пенн, ...-Описание: Возвратившись на Землю после своего многолетнего и загадочного отсутствия, Супермен обнаруживает, что его заклятый враг Лекс Лютор опять строит ему козни, а его возлюбленная Лоис Лэйн вроде бы уже устроила свою личную жизнь. Кроме того, Супермен понимает, что за то время, когда его не было, люди научились прекрасно обходиться без него. Чтобы защитить мир, который он любит, от катастрофических разрушений, Супермену приходится преодолевать огромные расстояния: он опускается в океанские глубины и поднимается на космические высоты…-Сценарий: Майкл Догерти, Дэн Харрис, Брайан Сингер
Продюсеры: Гилберт Адлер, Лорни Орлинз, Джон Питерс
Оператор: Ньютон Томас Сигел-Сэмпл: http://multi-up.com/868956
Тип релиза: BDRip
Контейнер: MKV
Видео: MPEG-4 AVC, 1280x534, 4585 Kbps, 23.976 fps
Аудио: AC-3, 6 channels, 48.0 KHz, 448 Kbps (Rus)
Аудио 2: DTS, 6 channels, 48.0 KHz, 1510 Kbps (Eng)

MediaInfo

General
Unique ID : 254474450880615412444463115499065343272 (0xBF71FF1AD63ACF47A7D993841DB47D28)
Complete name : C:\Users\Y12\Downloads\Superman.Returns.BDRip.720p.mkv
Format : Matroska
Format version : Version 4 / Version 2
File size : 7.05 GiB
Duration : 2h 34mn
Overall bit rate : 6 541 Kbps
Movie name : Superman Returns
Encoded date : UTC 2013-05-24 17:28:12
Writing application : mkvmerge v6.2.0 ('Promised Land') built on Apr 28 2013 12:22:01
Writing library : libebml v1.3.0 + libmatroska v1.4.0
Video
ID : 1
Format : AVC
Format/Info : Advanced Video Codec
Format profile : [email protected]
Format settings, CABAC : Yes
Format settings, ReFrames : 9 frames
Codec ID : V_MPEG4/ISO/AVC
Duration : 2h 34mn
Bit rate : 4 585 Kbps
Width : 1 280 pixels
Height : 534 pixels
Display aspect ratio : 2.40:1
Frame rate mode : Constant
Frame rate : 23.976 fps
Color space : YUV
Chroma subsampling : 4:2:0
Bit depth : 8 bits
Scan type : Progressive
Bits/(Pixel*Frame) : 0.280
Stream size : 4.80 GiB (68%)
Writing library : x264 core 125 r2200 999b753
Encoding settings : cabac=1 / ref=9 / deblock=1:-2:-2 / analyse=0x3:0x113 / me=esa / subme=10 / psy=1 / psy_rd=1.00:0.10 / mixed_ref=1 / me_range=48 / chroma_me=1 / trellis=2 / 8x8dct=1 / cqm=0 / deadzone=21,11 / fast_pskip=0 / chroma_qp_offset=-3 / threads=6 / lookahead_threads=1 / sliced_threads=0 / nr=0 / decimate=1 / interlaced=0 / bluray_compat=0 / constrained_intra=0 / bframes=8 / b_pyramid=2 / b_adapt=2 / b_bias=0 / direct=3 / weightb=1 / open_gop=0 / weightp=2 / keyint=240 / keyint_min=23 / scenecut=40 / intra_refresh=0 / rc=2pass / mbtree=0 / bitrate=4585 / ratetol=1.0 / qcomp=0.70 / qpmin=0 / qpmax=69 / qpstep=4 / cplxblur=20.0 / qblur=0.5 / ip_ratio=1.40 / pb_ratio=1.30 / aq=2:0.90
Language : English
Default : Yes
Forced : No
Color primaries : BT.709
Transfer characteristics : BT.709
Matrix coefficients : BT.709
Audio #1
ID : 2
Format : AC-3
Format/Info : Audio Coding 3
Mode extension : CM (complete main)
Format settings, Endianness : Big
Codec ID : A_AC3
Duration : 2h 34mn
Bit rate mode : Constant
Bit rate : 448 Kbps
Channel(s) : 6 channels
Channel positions : Front: L C R, Side: L R, LFE
Sampling rate : 48.0 KHz
Bit depth : 16 bits
Compression mode : Lossy
Stream size : 495 MiB (7%)
Title : Dub
Language : Russian
Default : Yes
Forced : No
Audio #2
ID : 3
Format : DTS
Format/Info : Digital Theater Systems
Mode : 16
Format settings, Endianness : Big
Codec ID : A_DTS
Duration : 2h 34mn
Bit rate mode : Constant
Bit rate : 1 510 Kbps
Channel(s) : 6 channels
Channel positions : Front: L C R, Side: L R, LFE
Sampling rate : 48.0 KHz
Bit depth : 24 bits
Compression mode : Lossy
Stream size : 1.63 GiB (23%)
Title : Eng
Language : English
Default : No
Forced : No
Text #1
ID : 4
Format : UTF-8
Codec ID : S_TEXT/UTF8
Codec ID/Info : UTF-8 Plain Text
Title : Rus
Language : Russian
Default : No
Forced : No
Text #2
ID : 5
Format : UTF-8
Codec ID : S_TEXT/UTF8
Codec ID/Info : UTF-8 Plain Text
Title : Eng
Language : English
Default : No
Forced : No
Menu
00:00:00.000 : en:Chapter 01
00:05:04.304 : en:Chapter 02
00:10:46.479 : en:Chapter 03
00:19:47.019 : en:Chapter 04
00:25:23.188 : en:Chapter 05
00:31:10.702 : en:Chapter 06
00:38:49.327 : en:Chapter 07
00:46:48.805 : en:Chapter 08
00:53:50.393 : en:Chapter 09
01:01:14.337 : en:Chapter 10
01:11:49.305 : en:Chapter 11
01:19:41.777 : en:Chapter 12
01:28:52.994 : en:Chapter 13
01:35:48.909 : en:Chapter 14
01:44:31.098 : en:Chapter 15
01:51:51.538 : en:Chapter 16
01:58:33.773 : en:Chapter 17
02:04:36.969 : en:Chapter 18
02:11:41.059 : en:Chapter 19
02:19:38.036 : en:Chapter 20
02:24:06.304 : en:Chapter 21
02:34:19.083 : en:Chapter 22

Скриншоты

Other forum [Profile] [PM]
Display posts from previous:    
Reply to topic

The time now is: Today 09:54

All times are GMT + 3 Hours



You cannot post new topics in this forum
You cannot reply to topics in this forum
You cannot edit your posts in this forum
You cannot delete your posts in this forum
You cannot vote in polls in this forum
You cannot attach files in this forum
You cannot download files in this forum