Today is a free download without charge Download

Крепкий орешек 5. Хороший день, чтобы умереть (Расширенная версия) / A Good Day to Die Hard (Extended Cut) (Джон Мур) [2013, США, Боевик, триллер, криминал, BDRip 1080p] Dub + Sub Eng + Original Eng

Reply to topic
 
Author
Message

Omen ®

Longevity: 8 years 5 months

Posts: 181087

Торрент-статистика

Post 24-May-2013 22:15

[Quote]

Крепкий орешек 5. Хороший день, чтобы умереть (Расширенная версия) / A Good Day to Die Hard (Extended Cut)
Страна: США
Студия: 20th Century Fox Film Corporation
Жанр: Боевик, триллер, криминал
Год выпуска: 2013
Продолжительность: 01:41:11
Перевод: Профессиональный (дублированный)
Cубтитры: английские
Оригинальная аудиодорожка: английский
Режиссер: Джон Мур
В ролях: Брюс Уиллис, Джей Кортни, Себастьян Кох, Юлия Снигирь, Радивойе Буквич, Сергей Колесников, Мэри Элизабет Уинстэд, Коул Хаузер, Амори Ноласко, Роман Лукнар, Павел Лучникофф, Мэгалин Эчиканвоке, Мелисса Тэнг, Рико Симонини, Катрин Кресг, Эйприл Грэйс, Купер Торнтон
Описание: Джон МакКлейн прибывает в Москву, чтобы вызволить из тюрьмы своего непредсказуемого сына, но холодная голова и железные мускулы вязнут в паутине российской действительности. Дело, в которое влип МакКлейн-младший, оказывается настолько «опасной трясиной», что отцу и сыну, чтобы выжить и в очередной раз спасти мир, приходится объединить свои усилия, забыв прежние, казалось бы, непреодолимые разногласия.
Сэмпл
Тип релиза: BDRip 1080p
Контейнер: MKV
Релиз:
Доп. информация: EXTENDED версия! Полный перевод!
Сохранены оригинальные чаптеры как на Blu-Ray.
Видео: MPEG-4 AVC, 13.9 Мбит/с, 1920x1040
Аудио: Русский (AC3, 6 ch, 384 Кбит/с, 48,0 КГц)
Аудио 2: Английский (DTS, 6 ch, 1510 Кбит/с, 48,0 КГц)
Формат субтитров: softsub (SRT)

MediaInfo

Общее
Уникальный идентификатор : 181253500632497617606463633820961366710 (0x885C278955B9F7EB829B0416139A62B6)
Полное имя : C:\Фильмы\A.Good.Day.to.Die.Hard.2013.BDRip.1080p.mkv
Формат : Matroska
Версия формата : Version 4 / Version 2
Размер файла : 11,2 Гбайт
Продолжительность : 1 ч. 41 м.
Общий поток : 15,8 Мбит/сек
Название фильма : -=AN=-
Дата кодирования : UTC 2010-02-22 21:41:31
Программа кодирования : mkvmerge v5.9.0 ('On The Loose') built on Dec 9 2012 15:37:01
Библиотека кодирования : libebml v1.3.0 + libmatroska v1.4.0
Видео
Идентификатор : 1
Формат : AVC
Формат/Информация : Advanced Video Codec
Профиль формата : [email protected]
Параметр CABAC формата : Да
Параметр ReFrames формата : 4 кадра
Идентификатор кодека : V_MPEG4/ISO/AVC
Продолжительность : 1 ч. 41 м.
Битрейт : 13,9 Мбит/сек
Ширина : 1920 пикселей
Высота : 1040 пикселей
Соотношение сторон : 1,85:1
Режим частоты кадров : Постоянный
Частота кадров : 23,976 кадра/сек
Цветовое пространство : YUV
Субдискретизация насыщенности : 4:2:0
Битовая глубина : 8 бит
Тип развёртки : Прогрессивная
Бит/(Пиксели*Кадры) : 0.290
Размер потока : 9,60 Гбайт (86%)
Заголовок : Rip by -=ANoobis=-
Библиотека кодирования : x264 core 130 r2273 b3065e6
Настройки программы : cabac=1 / ref=4 / deblock=1:-3:-3 / analyse=0x3:0x112 / me=umh / subme=10 / psy=1 / psy_rd=1.00:0.15 / mixed_ref=1 / me_range=32 / chroma_me=1 / trellis=2 / 8x8dct=1 / cqm=0 / deadzone=21,11 / fast_pskip=0 / chroma_qp_offset=-3 / threads=12 / lookahead_threads=1 / sliced_threads=0 / nr=0 / decimate=0 / interlaced=0 / bluray_compat=0 / constrained_intra=0 / bframes=6 / b_pyramid=2 / b_adapt=2 / b_bias=0 / direct=3 / weightb=1 / open_gop=0 / weightp=2 / keyint=250 / keyint_min=23 / scenecut=40 / intra_refresh=0 / rc_lookahead=40 / rc=2pass / mbtree=1 / bitrate=13900 / ratetol=1.0 / qcomp=0.70 / qpmin=0 / qpmax=69 / qpstep=4 / cplxblur=20.0 / qblur=0.5 / ip_ratio=1.40 / aq=1:1.00
Язык : English
Default : Да
Forced : Нет
Коэффициенты матрицы : BT.709
Аудио #1
Идентификатор : 2
Формат : AC-3
Формат/Информация : Audio Coding 3
Расширение режима : CM (complete main)
Параметр Endianness формата : Big
Идентификатор кодека : A_AC3
Продолжительность : 1 ч. 41 м.
Вид битрейта : Постоянный
Битрейт : 384 Кбит/сек
Каналы : 6 каналов
Расположение каналов : Front: L C R, Side: L R, LFE
Частота : 48,0 КГц
Битовая глубина : 16 бит
Метод сжатия : С потерями
Размер потока : 278 Мбайт (2%)
Заголовок : AC3 Dub iTunes
Язык : Russian
Default : Да
Forced : Нет
Аудио #2
Идентификатор : 3
Формат : DTS
Формат/Информация : Digital Theater Systems
Профиль формата : ES
Режим : 16
Параметр Endianness формата : Big
Идентификатор кодека : A_DTS
Продолжительность : 1 ч. 41 м.
Вид битрейта : Постоянный
Битрейт : 1509 Кбит/сек
Каналы : 6 каналов
Расположение каналов : Front: L C R, Side: L R, LFE
Частота : 48,0 КГц
Битовая глубина : 24 бит
Метод сжатия : С потерями
Размер потока : 1,07 Гбайт (10%)
Заголовок : DTS Eng
Язык : English
Default : Нет
Forced : Нет
Текст #1
Идентификатор : 4
Формат : UTF-8
Идентификатор кодека : S_TEXT/UTF8
Идентификатор кодека/Информация : UTF-8 Plain Text
Заголовок : Full
Язык : English
Default : Нет
Forced : Нет
Текст #2
Идентификатор : 5
Формат : UTF-8
Идентификатор кодека : S_TEXT/UTF8
Идентификатор кодека/Информация : UTF-8 Plain Text
Заголовок : SDH
Язык : English
Default : Нет
Forced : Нет
Меню
00:00:00.000 : :00:00:00.000
00:02:45.999 : :00:02:45.999
00:05:02.135 : :00:05:02.135
00:09:36.242 : :00:09:36.242
00:12:13.900 : :00:12:13.900
00:15:25.550 : :00:15:25.550
00:18:02.999 : :00:18:02.999
00:22:31.350 : :00:22:31.350
00:28:31.376 : :00:28:31.376
00:32:28.863 : :00:32:28.863
00:36:05.914 : :00:36:05.914
00:39:53.641 : :00:39:53.641
00:42:20.621 : :00:42:20.621
00:46:04.720 : :00:46:04.720
00:50:30.986 : :00:50:30.986
00:53:21.657 : :00:53:21.657
00:57:05.547 : :00:57:05.547
01:01:46.619 : :01:01:46.619
01:05:03.650 : :01:05:03.650
01:10:24.053 : :01:10:24.053
01:14:04.982 : :01:14:04.982
01:17:50.416 : :01:17:50.416
01:20:18.021 : :01:20:18.021
01:24:05.832 : :01:24:05.832
01:26:17.923 : :01:26:17.923
01:28:05.488 : :01:28:05.488
01:32:37.802 : :01:32:37.802
01:35:24.927 : :01:35:24.927
01:41:10.940 : :01:41:10.940

Скриншоты

Other forum [Profile] [PM]
Display posts from previous:    
Reply to topic

The time now is: Today 02:33

All times are GMT + 3 Hours



You cannot post new topics in this forum
You cannot reply to topics in this forum
You cannot edit your posts in this forum
You cannot delete your posts in this forum
You cannot vote in polls in this forum
You cannot attach files in this forum
You cannot download files in this forum