Today is a free download without charge Download

Таймлесс. Рубиновая книга / Rubinrot (Феликс Фуксштайнер) [2013, Германия, фантастика, фэнтези, приключения, BDRip 1080p] Dub (Мосфильм Мастер) + Sub Rus + Original Ger

Reply to topic
 
Author
Message

Omen ®

Longevity: 8 years 5 months

Posts: 181087

Торрент-статистика

Post 24-May-2013 18:10

[Quote]

Таймлесс. Рубиновая книга
Rubinrot
Страна: Германия
Жанр: фантастика, фэнтези, приключения
Год выпуска: 2013
Продолжительность: 2:01:12
Перевод: Профессиональный (дублированный) Мосфильм Мастер
Оригинальная аудиодорожка: немецкая
Cубтитры:русские
Режиссер: Феликс Фуксштайнер / Felix Fuchssteiner
Мировая премьера: 14 марта 2013

В ролях:
Мария Эрих, Янис Нивёнер, Вероника Феррес, Уве Кокиш, Катарина Тальбах,
Лаура Берлин, Флориан Бартоломай, Анна Бётхер, Сибулле Каноника,
Джастин Дель Корте

Описание:
Живущая в Лондоне шестнадцатилетняя Гвендолин Шеферд случайно узнает, что обладает уникальным геном путешественника во времени, который унаследовала от прапрабабушки. Теперь девушка может ежедневно переноситься в прошлое, и с каждым днем загадок становится все больше. Что такое «Тайна Двенадцати»? Кто охотится на путешественников во времени в прошлом? И почему все вокруг думают, что она обладает какой-то «магией ворона»?
Сэмпл
Тип релиза: BDRip 1080p
Контейнер: MKV
Видео: H.264/AVC, 1920x804, 12.7 Mbps, [email protected], 24.000 fps
Аудио 1: DTS 5.1, 768 Kbps, 48 kHz, 24 bits, Front: L C R, Side: L R, LFE\ Rus, Дубляж
Аудио 2: DTS 5.1, 768 Kbps, 48 kHz, 24 bits, Front: L C R, Side: L R, LFE\ Ger
Cубтитры: UTF-8 Plain Text\ rus

MediaInfo

Видео
Идентификатор : 1
Формат : AVC
Формат/Информация : Advanced Video Codec
Профиль формата : [email protected]
Параметр CABAC формата : Да
Параметр ReFrames формата : 4 кадра
Идентификатор кодека : V_MPEG4/ISO/AVC
Продолжительность : 2 ч. 1 м.
Битрейт : 12,7 Мбит/сек
Ширина : 1920 пикселей
Высота : 804 пикселя
Соотношение сторон : 2,40:1
Режим частоты кадров : Постоянный
Частота кадров : 24,000 кадра/сек
Цветовое пространство : YUV
Субдискретизация насыщенности : 4:2:0
Битовая глубина : 8 бит
Тип развёртки : Прогрессивная
Бит/(Пиксели*Кадры) : 0.343
Размер потока : 10,5 Гбайт (87%)
Заголовок : Rip by -=AN=-
Библиотека кодирования : x264 core 130 r2273 b3065e6
Настройки программы : cabac=1 / ref=4 / deblock=1:-3:-3 / analyse=0x3:0x112 / me=umh / subme=10 / psy=1 / psy_rd=1.00:0.15 / mixed_ref=1 / me_range=32 / chroma_me=1 / trellis=2 / 8x8dct=1 / cqm=0 / deadzone=21,11 / fast_pskip=0 / chroma_qp_offset=-3 / threads=12 / lookahead_threads=1 / sliced_threads=0 / nr=0 / decimate=0 / interlaced=0 / bluray_compat=0 / constrained_intra=0 / bframes=6 / b_pyramid=2 / b_adapt=2 / b_bias=0 / direct=3 / weightb=1 / open_gop=0 / weightp=2 / keyint=250 / keyint_min=23 / scenecut=40 / intra_refresh=0 / rc_lookahead=40 / rc=2pass / mbtree=1 / bitrate=12700 / ratetol=1.0 / qcomp=0.70 / qpmin=0 / qpmax=69 / qpstep=4 / cplxblur=20.0 / qblur=0.5 / ip_ratio=1.40 / aq=1:1.00
Язык : German
Default : Да
Forced : Нет
Коэффициенты матрицы : BT.709
Аудио #1
Идентификатор : 2
Формат : DTS
Формат/Информация : Digital Theater Systems
Режим : 16
Параметр Endianness формата : Big
Идентификатор кодека : A_DTS
Продолжительность : 2 ч. 1 м.
Вид битрейта : Постоянный
Битрейт : 768 Кбит/сек
Каналы : 6 каналов
Расположение каналов : Front: L C R, Side: L R, LFE
Частота : 48,0 КГц
Битовая глубина : 24 бит
Метод сжатия : С потерями
Размер потока : 666 Мбайт (5%)
Заголовок : DTS Dub Mosfilm Master
Язык : Russian
Default : Да
Forced : Нет
Аудио #2
Идентификатор : 3
Формат : DTS
Формат/Информация : Digital Theater Systems
Режим : 16
Параметр Endianness формата : Big
Идентификатор кодека : A_DTS
Продолжительность : 2 ч. 1 м.
Вид битрейта : Постоянный
Битрейт : 768 Кбит/сек
Каналы : 6 каналов
Расположение каналов : Front: L C R, Side: L R, LFE
Частота : 48,0 КГц
Битовая глубина : 24 бит
Метод сжатия : С потерями
Размер потока : 666 Мбайт (5%)
Заголовок : DTS Ger
Язык : German
Default : Нет
Forced : Нет
Текст
Идентификатор : 4
Формат : UTF-8
Идентификатор кодека : S_TEXT/UTF8
Идентификатор кодека/Информация : UTF-8 Plain Text
Язык : Russian
Default : Нет
Forced : Нет
Меню
00:00:00.000 : :00:00:00.000
00:07:42.125 : :00:07:42.125
00:12:25.237 : :00:12:25.237
00:16:48.092 : :00:16:48.092
00:24:32.515 : :00:24:32.515
00:29:19.672 : :00:29:19.672
00:34:34.072 : :00:34:34.072
00:41:19.309 : :00:41:19.309
00:49:38.935 : :00:49:38.935
00:53:00.781 : :00:53:00.781
01:00:10.897 : :01:00:10.897
01:06:13.523 : :01:06:13.523
01:12:39.590 : :01:12:39.590
01:17:51.960 : :01:17:51.960
01:23:52.010 : :01:23:52.010
01:29:03.301 : :01:29:03.301
01:34:54.103 : :01:34:54.103
01:39:10.975 : :01:39:10.975
01:44:07.951 : :01:44:07.951
01:50:12.301 : :01:50:12.301
01:56:34.562 : :01:56:34.562
02:01:09.724 : :02:01:09.724

Скриншоты


Other forum [Profile] [PM]
Display posts from previous:    
Reply to topic

The time now is: Today 02:12

All times are GMT + 3 Hours



You cannot post new topics in this forum
You cannot reply to topics in this forum
You cannot edit your posts in this forum
You cannot delete your posts in this forum
You cannot vote in polls in this forum
You cannot attach files in this forum
You cannot download files in this forum