Сегодня идет свободное скачивание без начисления Download

Забытая мелодия для флейты (Эльдар Рязанов) [1987, драма, мелодрама, комедия, DVDRip, Полная реставрация]

Ответить на тему
 
Автор
Сообщение

Omen ®

Стаж: 5 лет 10 месяцев

Сообщений: 184329

Торрент-статистика

Пост 03-Авг-2011 21:18

[Цитировать]

Забытая мелодия для флейты (1987) DVDRip
(Полная реставрация)
-
Год выпуска: 1987
Страна: СССР (Мосфильм)
Жанр: драма, мелодрама, комедия
Продолжительность: 02:06:29 -Режиссер: Эльдар Рязанов
Сценарий: Эмиль Брагинский, Эдьдар Рязанов
Композитор: Андрей Петров
В ролях:
Леонид Филатов, Татьяна Догилева, Ирина Купченко, Валентин Гафт, Александр Ширвиндт, Сергей Арцыбашев, Елена Майорова, Всеволод Санаев, Вацлав Дворжецкий, Александр Панкратов-Черный, Ольга Волкова, Петр Меркурьев, Елена Фадеева............

Описание фильма:
Флейтист в забытом прошлом, а в настоящем - муж дочери "большого человека", начальник одного из подразделений Главного управления - однажды почуствовал физическое недомогание: схватило коликами сердце в неполные сорок лет от роду. Этот неприятный случай послужил поводом для знакомства с медсестрой Лидой. Однако бурный роман закончился и Филимонов вернулся к нормальной жизни и нелюбимой жене........-Качество видео: DVDRip
Видеокодек: DivX
Формат: AVI
Видео: 640x448 (1,429:1), 25,000 fps, 1090 kbps, 0.152 bit/pix
Аудиокодек: AC3
Аудио: 48 kHz, AC3 Dolby Digital, 3/2 (L,C,R,l,r) + LFE ch, 448.00 kbps

MediaInfo:


Формат : AVI
Формат/Информация : Audio Video Interleave
Размер файла : 1,37 Гбайт
Продолжительность : 2 ч. 6 м.
Общий поток : 1548 Кбит/сек
Программа кодирования : VirtualDubMod 1.5.10.1 (build 2439/release)
Формат оригинала/Имя : Movie
Видео
Идентификатор : 0
Формат : MPEG-4 Visual
Параметр BVOP формата : 1
Параметр QPel формата : Нет
Параметр GMC формата : Без точки перехода
Параметр матрицы формата : Default (H.263)
Режим смешивания : Сжатый битовый поток
Идентификатор кодека : DX50
Идентификатор кодека/Подсказка : DivX 5
Продолжительность : 2 ч. 6 м.
Битрейт : 1090 Кбит/сек
Ширина : 640 пикс.
Высота : 448 пикс.
Соотношение сторон : 1,429
Частота кадров : 25,000 кадр/сек
Цветовое пространство : YUV
Подвыборка цветности : 4:2:0
Битовая глубина : 8 бит
Тип развёртки : Прогрессивная
Метод сжатия : С потерями
Бит/(Пиксели*Кадры) : 0.152
Размер потока : 986 Мбайт (70%)
Библиотека кодирования : DivX 5.2.1 (WaffleDay) (UTC 2004-09-08)
Аудио
Идентификатор : 1
Формат : AC-3
Формат/Информация : Audio Coding 3
Расширение режима : CM (complete main)
Идентификатор кодека : 2000
Продолжительность : 2 ч. 6 м.
Вид битрейта : Постоянный
Битрейт : 448 Кбит/сек
Каналы : 6 каналов
Расположение каналов : Front: L C R, Side: L R, LFE
Частота : 48,0 КГц
Битовая глубина : 16 бит
Метод сжатия : С потерями
Размер потока : 405 Мбайт (29%)
Выравнивание : Разделение по промежуткам
Продолжительность промежутка : 40 мс. (1,00 видеокадр)
Время предзагрузки промежутка : 500 ms

Премьеры:


1 октября 1987 СССР
21 декабря 1988 США
26 октября 1990 Германия
**********************
премьера (мир) 1 октября 1987
**********************
Награды: I МКФ в Браге-89 (Португалия)
Скриншоты:            


Последний раз редактировалось: Omen (2011-08-03 21:21), всего редактировалось 1 раз
Вне форума [Профиль] [ЛС]

uschakov.yura

Пол:

Стаж: 6 лет 5 месяцев

Сообщений: 523

Откуда: Рыбинск Ярославской области

Торрент-статистика

Пост 14-Дек-2012 00:26 (спустя 1 год 4 месяца)

[Цитировать]

Грустная ирония над славной историей
uschakov.yura

_________________
uschakov.yura
Вне форума [Профиль] [ЛС]
Показать сообщения:    
Ответить на тему

Текущее время: Сегодня 19:45

Часовой пояс: GMT + 3



Вы не можете начинать темы
Вы не можете отвечать на сообщения
Вы не можете редактировать свои сообщения
Вы не можете удалять свои сообщения
Вы не можете голосовать в опросах
Вы не можете прикреплять файлы к сообщениям
Вы не можете скачивать файлы