Today is a free download without charge Download

30 Seconds To Mars - Up In The Air (Live on Conan O'Brien Show 22.05.13) [2013, Alternative Rock, HDTVRip 720p]

Reply to topic
 
Author
Message

Omen ®

Longevity: 8 years 4 months

Posts: 181087

Торрент-статистика

Post 24-May-2013 14:06

[Quote]

30 Seconds To Mars - Up In The Air
(Live on Conan O'Brien Show 22.05.13)
Жанр: Alternative Rock
Продолжительность: 00:04:42
Год выпуска: 2013
Качество: HDTVRip 720p
Контейнер: MKV
Видео кодек: H.264
Аудио кодек: AC3
Видео: AVC, 1280x720, (16:9), 7157 Kbps, Fps 59.880
Аудио: AC3, 448 Kbps, 48.0 KHz, 6 Ch

Отчёт MediaInfo / BDInfo

E:\30 Seconds To Mars - Up In The Air (Live on Conan O'Brien Show 22.05.13).mkv General Unique ID : 218940173505809300917759232455273233348 (0xA4B657F760697F889D0682096C363BC4) Complete name : E:\30 Seconds To Mars - Up In The Air (Live on Conan O'Brien Show 22.05.13).mkv Format : Matroska Format version : Version 2 File size : 261 MiB Duration : 4mn 42s Overall bit rate : 7 760 Kbps Encoded date : UTC 2013-05-24 06:00:50 Writing application : mkvmerge v4.0.0 ('The Stars were mine') ñáîðêà îò Jun 6 2010 16:18:42 Writing library : libebml v1.0.0 + libmatroska v1.0.0 Video #1 ID : 1 Format : AVC Format/Info : Advanced Video Codec Format profile : [email protected] Format settings, CABAC : Yes Format settings, ReFrames : 8 frames Codec ID : V_MPEG4/ISO/AVC Duration : 4mn 42s Bit rate : 7 157 Kbps Width : 1 280 pixels Height : 720 pixels Display aspect ratio : 16:9 Frame rate mode : Constant Frame rate : 59.880 fps Original frame rate : 59.940 fps Color space : YUV Chroma subsampling : 4:2:0 Bit depth : 8 bits Scan type : Progressive Bits/(Pixel*Frame) : 0.130 Stream size : 241 MiB (92%) Language : English Default : No Forced : No Matrix coefficients : BT.709 Audio #2 ID : 2 Format : AC-3 Format/Info : Audio Coding 3 Mode extension : CM (complete main) Format settings, Endianness : Big Codec ID : A_AC3 Duration : 4mn 42s Bit rate mode : Constant Bit rate : 448 Kbps Channel(s) : 6 channels Channel positions : Front: L C R, Side: L R, LFE Sampling rate : 48.0 KHz Bit depth : 16 bits Compression mode : Lossy Delay relative to video : 8ms Stream size : 15.1 MiB (6%) Default : No Forced : No

Скриншоты

Other forum [Profile] [PM]
Display posts from previous:    
Reply to topic

The time now is: Today 05:07

All times are GMT + 3 Hours



You cannot post new topics in this forum
You cannot reply to topics in this forum
You cannot edit your posts in this forum
You cannot delete your posts in this forum
You cannot vote in polls in this forum
You cannot attach files in this forum
You cannot download files in this forum