Today is a free download without charge Download

Мама / Mama ( Андрес Мускетти ) (2013, Ужасы, Фэнтези, Триллер ) BDRemux [1080p] [Line]

Reply to topic
 
Author
Message

Витек1 ®

Gender:

Longevity: 8 years 3 months

Posts: 451

Location: Житомир

Торрент-статистика

Post 24-May-2013 12:15

[Quote]

Мама / Mama -«Никогда не оставит тебя»- Русское название: Мама
Оригинальное название: Mama
Год выпуска: 2013
Производство: Испания, Канада / De Milo, Toma 78
Жанр: Ужасы, Фэнтези, Триллер
Перевод: Дублированный [Чистый звук]
Субтитры: Вшитые отключаемые
Язык субтитров: Русский, Английский
Дата мировой премьеры: 17 января 2013
Дата российской премьеры: 7 марта 2013, «UPI»
Дата выхода DVD релиза: 23 мая 2013, «Двадцатый Век Фокс СНГ»
Режиссер: Андрес Мускетти
Продюсер: Дж. Майлз Дэйл, Барбара Мускетти, Гильермо дель Торо
Актеры: Джессика Честейн, Николай Костер-Вальдау, Меган Чарпентье, Изабель Нелисс, Дэниэл Кэш, Хавьер Боте, Джейн Моффат, Морган МакГарри, Дэвид Фокс, Доминик Куццокреа
Описание фильма:
В заброшенной хижине в чаще леса найдены две девочки. Таинственным образом они прожили в пустом доме пять лет. Найденных сирот забирают единственные родственники, молодая супружеская пара. Но девочки не одиноки, у них есть мама, и она приходит из тьмы…

Продолжительность: 01:40:06
Качество видео: BDRemux
Видеокодек: MPEG-4 AVC/H.264
Битрейт видео: ~32069 kbps
Размер кадра: 1920 x 1080
Аудио 1: Русский, AC3 5.1, 448 kbps, 48 kHz
Аудио 2: Английский, DTS-HD MA 5.1, 3693 kbps, 48 kHz
Аудио 3: Английский, AC3 2.0, 192 kbps, 48 kHz (Комментарий режиссера А.Мускетти и продюссера Б.Мускетти)-Сэмпл: Скачать-

Знаете ли вы, что...

Когда Аннабель слышит, как девочки играют, она идет в их комнату, чтобы сказать, что уже поздно и пора ложиться спать, но на улице еще светло. В фильме также есть еще около 3-х сцен, в которых по сюжету должна быть ночь, а за окнами на улице день.
Когда Лили уговаривает Викторию пойти к Маме, положение ее одеяла меняется после смены кадра.
У врача ноутбук Sony Vaio (с операционной системой Windows), однако, когда Аннебель берет его, чтобы увидеть результаты исследований, то там оказывается Mac OS.
Когда маленькая Виктория впервые заходит в хижину, она шагает по снегу, который прилипает к ее ногам, и можно заметить, что на самом деле это белый ковер.
Когда Аннабель копается в компьютере доктора Дрейфусса, в названии папки с его исследованиями есть опечатка — «Reasearch» (а правильно «Research»).
Лукас арендует автомобиль в конторе под названием «Enterprise», но у машины не видно штрих-кода на окне. Все машины этой компании обладают штрих-кодами для ускорения процедуры регистрации.

-

MediaInfo:

Общее
Уникальный идентификатор : 237852799669627357202639486063952228723 (0xB2F0C86DB52EEF9785463E42C5B77173)
Полное имя : D:\Films\Mama.2013.BDRemux.1080p.mkv
Формат : Matroska
Версия формата : Version 2
Размер файла : 25,4 Гбайт
Продолжительность : 1 ч. 40 м.
Режим общего битрейта : Переменный
Общий поток : 36,3 Мбит/сек
Дата кодирования : UTC 2013-05-16 03:03:57
Программа кодирования : mkvmerge v5.2.0 ('I can't explain') built on Dec 18 2011 18:12:03
Библиотека кодирования : libebml v1.2.3 + libmatroska v1.3.0
Видео
Идентификатор : 1
Формат : AVC
Формат/Информация : Advanced Video Codec
Профиль формата : [url=mailto:[email protected]][email protected][/url]
Параметр CABAC формата : Да
Параметр ReFrames формата : 4 кадра
Параметр GOP формата : M=3, N=12
Идентификатор кодека : V_MPEG4/ISO/AVC
Продолжительность : 1 ч. 40 м.
Вид битрейта : Переменный
Максимальный битрейт : 35,0 Мбит/сек
Ширина : 1920 пикселей
Высота : 1080 пикселей
Соотношение сторон : 16:9
Режим частоты кадров : Постоянный
Частота кадров : 23,976 кадра/сек
Цветовое пространство : YUV
Субдискретизация насыщенности : 4:2:0
Битовая глубина : 8 бит
Тип развёртки : Прогрессивная
Язык : English
Default : Да
Forced : Нет
Аудио #1
Идентификатор : 2
Формат : AC-3
Формат/Информация : Audio Coding 3
Расширение режима : CM (complete main)
Параметр Endianness формата : Big
Идентификатор кодека : A_AC3
Продолжительность : 1 ч. 40 м.
Вид битрейта : Постоянный
Битрейт : 448 Кбит/сек
Каналы : 6 каналов
Расположение каналов : Front: L C R, Side: L R, LFE
Частота : 48,0 КГц
Битовая глубина : 16 бит
Метод сжатия : С потерями
Размер потока : 321 Мбайт (1%)
Заголовок : DUB [Line]
Язык : Russian
Default : Да
Forced : Нет
Аудио #2
Идентификатор : 3
Формат : DTS
Формат/Информация : Digital Theater Systems
Профиль формата : MA / Core
Режим : 16
Параметр Endianness формата : Big
Идентификатор кодека : A_DTS
Продолжительность : 1 ч. 40 м.
Вид битрейта : Переменный
Битрейт : Неизвестно / 1509 Кбит/сек
Каналы : 6 каналов
Расположение каналов : Front: L C R, Side: L R, LFE
Частота : 48,0 КГц
Битовая глубина : 24 бит
Метод сжатия : Без потерь / Lossy
Заголовок : Lossless
Язык : English
Default : Нет
Forced : Нет
Аудио #3
Идентификатор : 4
Формат : AC-3
Формат/Информация : Audio Coding 3
Профиль формата : Dolby Digital
Расширение режима : CM (complete main)
Параметр Endianness формата : Big
Идентификатор кодека : A_AC3
Продолжительность : 1 ч. 40 м.
Вид битрейта : Постоянный
Битрейт : 192 Кбит/сек
Каналы : 2 канала
Расположение каналов : Front: L R
Частота : 48,0 КГц
Битовая глубина : 16 бит
Метод сжатия : С потерями
Размер потока : 137 Мбайт (1%)
Заголовок : Commentary
Язык : English
Default : Нет
Forced : Нет
Текст #1
Идентификатор : 5
Формат : UTF-8
Идентификатор кодека : S_TEXT/UTF8
Идентификатор кодека/Информация : UTF-8 Plain Text
Заголовок : Notabenoid
Язык : Russian
Default : Нет
Forced : Нет
Текст #2
Идентификатор : 6
Формат : PGS
Режим смешивания : zlib
Идентификатор кодека : S_HDMV/PGS
Идентификатор кодека/Информация : The same subtitle format used on BDs/HD-DVDs
Язык : English
Default : Нет
Forced : Нет
Меню
00:00:00.000 : en:Chapter 00
00:04:57.880 : en:Chapter 01
00:11:47.164 : en:Chapter 02
00:17:33.761 : en:Chapter 03
00:20:51.416 : en:Chapter 04
00:26:08.733 : en:Chapter 05
00:32:02.795 : en:Chapter 06
00:36:53.169 : en:Chapter 07
00:40:12.535 : en:Chapter 08
00:44:43.222 : en:Chapter 09
00:47:35.185 : en:Chapter 10
00:53:04.389 : en:Chapter 11
00:58:55.281 : en:Chapter 12
01:04:38.165 : en:Chapter 13
01:11:00.339 : en:Chapter 14
01:16:49.146 : en:Chapter 15
01:22:00.999 : en:Chapter 16
01:25:14.526 : en:Chapter 17
01:29:15.058 : en:Chapter 18
01:35:29.348 : en:Chapter 19
-Скриншоты:        
       
-

_________________
Скачал сам, дай скачать другому!!!Не забудь сказать -
Other forum [Profile] [PM]
Display posts from previous:    
Reply to topic

The time now is: Today 10:33

All times are GMT + 3 Hours



You cannot post new topics in this forum
You cannot reply to topics in this forum
You cannot edit your posts in this forum
You cannot delete your posts in this forum
You cannot vote in polls in this forum
You cannot attach files in this forum
You cannot download files in this forum