Today is a free download without charge Download

Мама / Mama ( Андрес Мускетти ) (2013, Ужасы, Триллер, Фэнтези ) BDRip [1080p] [Line]

Reply to topic
 
Author
Message

Витек1 ®

Gender:

Longevity: 8 years 3 months

Posts: 451

Location: Житомир

Торрент-статистика

Post 24-May-2013 11:57

[Quote]

Мама / Mama --«Никогда не оставит тебя»-
Русское название: Мама
Оригинальное название: Mama
Год выпуска: 2013
Производство: Испания, Канада / De Milo, Toma 78
Жанр: Ужасы, Триллер, Фэнтези
Перевод: Дублированный [Чистый звук]

Дата мировой премьеры: 17 января 2013
Дата российской премьеры: 7 марта 2013, «UPI»
Дата выхода DVD релиза: 23 мая 2013, «Двадцатый Век Фокс СНГ»
Режиссер: Андрес Мускетти
Актеры: Джессика Честейн, Николай Костер-Вальдау, Меган Чарпентье, Изабель Нелисс, Дэниэл Кэш, Хавьер Боте, Джейн Моффат, Морган МакГарри, Дэвид Фокс, Доминик Куццокреа--Описание фильма:
В заброшенной хижине в чаще леса найдены две девочки. Таинственным образом они прожили в пустом доме пять лет. Найденных сирот забирают единственные родственники, молодая супружеская пара. Но девочки не одиноки, у них есть мама, и она приходит из тьмы…-- Продолжительность: 01:40:06
Качество видео: BDRip 1080p
Видеокодек: MPEG-4 AVC/H.264
Битрейт видео: ~14,3 Мбит/сек
Размер кадра: 1920 x 1040
Аудиокодек: AC3 , DTS-HD MA
Аудио #1: Русский ( AC3 / 5.1 / 48 kHz / 448 kbps ) - Дубляж [Line]
Аудио #2: Английский ( DTS-HD MA / 5.1 / 48 kHz / 1576 kbps )
-

MediaInfo:

Общее
Уникальный идентификатор : 216531882395056656227388530830095263825 (0xA2E6860C16031D3794201156D7C9A851)
Полное имя : Мама _ Mama (2013) BDRip [1080p] [Line].mkv
Формат : Matroska
Версия формата : Version 2
Размер файла : 11,6 Гбайт
Продолжительность : 1 ч. 40 м.
Режим общего битрейта : Переменный
Общий поток : 16,6 Мбит/сек
Дата кодирования : UTC 2013-05-16 09:50:44
Программа кодирования : mkvmerge v4.0.0 ('The Stars were mine') сборка от Jun 6 2010 16:18:42
Библиотека кодирования : libebml v1.0.0 + libmatroska v1.0.0
Видео
Идентификатор : 1
Формат : AVC
Формат/Информация : Advanced Video Codec
Профиль формата : [url=mailto:[email protected]][email protected][/url]
Параметр CABAC формата : Да
Параметр ReFrames формата : 4 кадра
Идентификатор кодека : V_MPEG4/ISO/AVC
Продолжительность : 1 ч. 40 м.
Битрейт : 14,3 Мбит/сек
Ширина : 1920 пикселей
Высота : 1040 пикселей
Соотношение сторон : 1,85:1
Режим частоты кадров : Постоянный
Частота кадров : 23,976 кадра/сек
Цветовое пространство : YUV
Субдискретизация насыщенности : 4:2:0
Битовая глубина : 8 бит
Тип развёртки : Прогрессивная
Бит/(Пиксели*Кадры) : 0.298
Размер потока : 9,99 Гбайт (86%)
Библиотека кодирования : x264 core 130 r2273 b3065e6
Настройки программы : cabac=1 / ref=4 / deblock=1:-3:-3 / analyse=0x3:0x113 / me=umh / subme=10 / psy=1 / psy_rd=1.00:0.00 / mixed_ref=1 / me_range=32 / chroma_me=1 / trellis=2 / 8x8dct=1 / cqm=0 / deadzone=21,11 / fast_pskip=1 / chroma_qp_offset=-2 / threads=18 / lookahead_threads=3 / sliced_threads=0 / nr=0 / decimate=1 / interlaced=0 / bluray_compat=0 / constrained_intra=0 / bframes=8 / b_pyramid=2 / b_adapt=2 / b_bias=0 / direct=3 / weightb=1 / open_gop=0 / weightp=2 / keyint=240 / keyint_min=23 / scenecut=40 / intra_refresh=0 / rc_lookahead=60 / rc=crf / mbtree=0 / crf=17.0 / qcomp=1.00 / qpmin=0 / qpmax=69 / qpstep=4 / vbv_maxrate=50000 / vbv_bufsize=50000 / crf_max=0.0 / nal_hrd=none / ip_ratio=1.30 / pb_ratio=1.20 / aq=2:0.80
Язык : English
Default : Нет
Forced : Нет
Аудио #1
Идентификатор : 2
Формат : AC-3
Формат/Информация : Audio Coding 3
Расширение режима : CM (complete main)
Параметр Endianness формата : Big
Идентификатор кодека : A_AC3
Продолжительность : 1 ч. 40 м.
Вид битрейта : Постоянный
Битрейт : 448 Кбит/сек
Каналы : 6 каналов
Расположение каналов : Front: L C R, Side: L R, LFE
Частота : 48,0 КГц
Битовая глубина : 16 бит
Метод сжатия : С потерями
Размер потока : 321 Мбайт (3%)
Язык : Russian
Default : Да
Forced : Да
Аудио #2
Идентификатор : 3
Формат : DTS
Формат/Информация : Digital Theater Systems
Профиль формата : MA / Core
Идентификатор кодека : A_DTS
Продолжительность : 1 ч. 40 м.
Вид битрейта : Переменный
Битрейт : 1576 Кбит/сек / 1510 Кбит/сек
Каналы : 6 каналов
Расположение каналов : Front: L C R, Side: L R, LFE
Частота : 48,0 КГц
Битовая глубина : 24 бит
Метод сжатия : Без потерь / Lossy
Язык : English
Default : Нет
Forced : Нет
Меню
00:00:00.000 : en:00:00:00.000
00:04:57.881 : en:00:04:57.881
00:11:47.165 : en:00:11:47.165
00:17:33.761 : en:00:17:33.761
00:20:51.417 : en:00:20:51.417
00:26:08.734 : en:00:26:08.734
00:32:02.796 : en:00:32:02.796
00:36:53.169 : en:00:36:53.169
00:40:12.535 : en:00:40:12.535
00:44:43.222 : en:00:44:43.222
00:47:35.186 : en:00:47:35.186
00:53:04.390 : en:00:53:04.390
00:58:55.282 : en:00:58:55.282
01:04:38.166 : en:01:04:38.166
01:11:00.339 : en:01:11:00.339
01:16:49.146 : en:01:16:49.146
01:22:00.999 : en:01:22:00.999
01:25:14.526 : en:01:25:14.526
01:29:15.058 : en:01:29:15.058
01:35:29.349 : en:01:35:29.349
-Скриншоты:

         
         

_________________
Скачал сам, дай скачать другому!!!Не забудь сказать -
Other forum [Profile] [PM]

Dracula

Longevity: 7 years 5 months

Posts: 11216

Торрент-статистика

Post 02-Jan-2014 15:52 (after 7 months 9 days)

Топик был перенесен из форума Новинки (DVD, HD Video) в форум Зарубежное кино (HD Video)


kogesan
 
Display posts from previous:    
Reply to topic

The time now is: Today 03:37

All times are GMT + 3 Hours



You cannot post new topics in this forum
You cannot reply to topics in this forum
You cannot edit your posts in this forum
You cannot delete your posts in this forum
You cannot vote in polls in this forum
You cannot attach files in this forum
You cannot download files in this forum