Today is a free download without charge Download

Реальные парни / Stand Up Guys (Фишер Стивенс / Fisher Stevens) [2012, США, драма, комедия, криминал, BDRip 720p] Dub + VO (А.Багичев) + Sub Eng + Original Eng

Reply to topic
 
Author
Message

Omen ®

Longevity: 8 years 5 months

Posts: 181087

Торрент-статистика

Post 23-May-2013 21:51

[Quote]

Реальные парни / Stand Up Guys
Страна: США
Жанр: драма, комедия, криминал
Год выпуска: 2012
Продолжительность: 01:34:58
Перевод 1: Профессиональный (дублированный)
Перевод 2: Одноголосый закадровый А.Багичев
Cубтитры: английские
Оригинальная аудиодорожка: английский
Режиссер: Фишер Стивенс / Fisher Stevens
В ролях: Аль Пачино, Кристофер Уокен, Алан Аркин, Джулианна Маргулис, Марк Марголис, Люси Панч, Эддисон Тимлин, Ванесса Ферлито, Кэтрин Уинник, Билли Барр
Описание: История строится вокруг двух уже немолодых преступников, один из которых получил задание убить близкого друга. Столь непростая ситуация требует времени на обдумывание, и киллеры решают вместе с приятелем изрядно побуянить (включая посещение борделя, угон машин и бегство от полиции), прежде чем будет принято окончательное решение.
Сэмпл
Тип релиза: BDRip 720p
Контейнер: MKV
Видео: MPEG-4 AVC; 1280x534; 4200 Kbps; 23,976 fps
Аудио 1: DTS Audio Russian 1509 kbps 5.1 / 48 kHz / 24-bit
Аудио 2: DTS Audio Russian 755 kbps 5.1 / 48 kHz / 24-bit / А.Багичев
Аудио 3: DTS Audio English 1509 kbps 5.1 / 48 kHz / 24-bit
Формат субтитров: softsub (SRT)

MediaInfo

General
Unique ID : 231523940139784182479373548632357650548 (0xAE2DE38FFBED31209B2AD72303DEC074)
Complete name : Stand.Up.Guys.2012.BDRip720p.mkv
Format : Matroska
Format version : Version 4 / Version 2
File size : 5.29 GiB
Duration : 1h 34mn
Overall bit rate : 7 974 Kbps
Movie name : Stand.Up.Guys.2012.BDRip720p BDA
Encoded date : UTC 2013-05-23 17:37:54
Writing application : mkvmerge v6.2.0 ('Promised Land') built on Apr 28 2013 12:22:01
Writing library : libebml v1.3.0 + libmatroska v1.4.0
Video
ID : 1
Format : AVC
Format/Info : Advanced Video Codec
Format profile : [email protected]
Format settings, CABAC : Yes
Format settings, ReFrames : 9 frames
Codec ID : V_MPEG4/ISO/AVC
Duration : 1h 34mn
Bit rate : 4 200 Kbps
Width : 1 280 pixels
Height : 534 pixels
Display aspect ratio : 2.40:1
Frame rate mode : Constant
Frame rate : 23.976 fps
Color space : YUV
Chroma subsampling : 4:2:0
Bit depth : 8 bits
Scan type : Progressive
Bits/(Pixel*Frame) : 0.256
Stream size : 2.68 GiB (51%)
Title : Stand.Up.Guys.2012.BDRip720p
Writing library : x264 core 130 r2273 b3065e6
Encoding settings : cabac=1 / ref=9 / deblock=1:-3:-3 / analyse=0x3:0x133 / me=umh / subme=10 / psy=1 / psy_rd=1.00:0.00 / mixed_ref=1 / me_range=32 / chroma_me=1 / trellis=2 / 8x8dct=1 / cqm=0 / deadzone=21,11 / fast_pskip=1 / chroma_qp_offset=-2 / threads=12 / lookahead_threads=1 / sliced_threads=0 / nr=0 / decimate=1 / interlaced=0 / bluray_compat=0 / constrained_intra=0 / bframes=3 / b_pyramid=2 / b_adapt=2 / b_bias=0 / direct=3 / weightb=1 / open_gop=0 / weightp=2 / keyint=240 / keyint_min=23 / scenecut=40 / intra_refresh=0 / rc_lookahead=60 / rc=2pass / mbtree=1 / bitrate=4200 / ratetol=1.0 / qcomp=0.60 / qpmin=10 / qpmax=51 / qpstep=4 / cplxblur=20.0 / qblur=0.5 / vbv_maxrate=40000 / vbv_bufsize=40000 / nal_hrd=none / ip_ratio=1.40 / aq=1:1.00
Language : English
Default : Yes
Forced : No
Audio #1
ID : 2
Format : DTS
Format/Info : Digital Theater Systems
Mode : 16
Format settings, Endianness : Big
Codec ID : A_DTS
Duration : 1h 34mn
Bit rate mode : Constant
Bit rate : 1 509 Kbps
Channel(s) : 6 channels
Channel positions : Front: L C R, Side: L R, LFE
Sampling rate : 48.0 KHz
Bit depth : 24 bits
Compression mode : Lossy
Stream size : 1.00 GiB (19%)
Title : DUB
Language : Russian
Default : Yes
Forced : No
Audio #2
ID : 3
Format : DTS
Format/Info : Digital Theater Systems
Mode : 16
Format settings, Endianness : Big
Codec ID : A_DTS
Duration : 1h 34mn
Bit rate mode : Constant
Bit rate : 755 Kbps
Channel(s) : 6 channels
Channel positions : Front: L C R, Side: L R, LFE
Sampling rate : 48.0 KHz
Bit depth : 24 bits
Compression mode : Lossy
Stream size : 513 MiB (9%)
Title : AVO Багичев
Language : Russian
Default : No
Forced : No
Audio #3
ID : 4
Format : DTS
Format/Info : Digital Theater Systems
Mode : 16
Format settings, Endianness : Big
Codec ID : A_DTS
Duration : 1h 34mn
Bit rate mode : Constant
Bit rate : 1 509 Kbps
Channel(s) : 6 channels
Channel positions : Front: L C R, Side: L R, LFE
Sampling rate : 48.0 KHz
Bit depth : 24 bits
Compression mode : Lossy
Stream size : 1.00 GiB (19%)
Language : English
Default : No
Forced : No
Text
ID : 5
Format : UTF-8
Codec ID : S_TEXT/UTF8
Codec ID/Info : UTF-8 Plain Text
Language : English
Default : No
Forced : No
Menu
00:00:00.000 : en:00:00:00.000
00:07:28.448 : en:00:07:28.448
00:11:43.703 : en:00:11:43.703
00:18:41.329 : en:00:18:41.329
00:23:23.819 : en:00:23:23.819
00:28:53.941 : en:00:28:53.941
00:37:45.680 : en:00:37:45.680
00:41:33.116 : en:00:41:33.116
00:48:00.086 : en:00:48:00.086
00:54:15.419 : en:00:54:15.419
00:59:49.795 : en:00:59:49.795
01:06:18.391 : en:01:06:18.391
01:10:55.668 : en:01:10:55.668
01:16:59.448 : en:01:16:59.448
01:24:10.671 : en:01:24:10.671
01:29:41.585 : en:01:29:41.585

x264

---[NoImage] x264 [info]: frame I:1325 Avg QP:12.02 size:110862
---[NoImage] x264 [info]: frame P:38273 Avg QP:13.76 size: 39291
---[NoImage] x264 [info]: frame B:97030 Avg QP:15.96 size: 13810
---[NoImage] x264 [info]: consecutive B-frames: 1.9% 4.2% 17.8% 76.1%

Скриншоты


Other forum [Profile] [PM]
Display posts from previous:    
Reply to topic

The time now is: Today 11:55

All times are GMT + 3 Hours



You cannot post new topics in this forum
You cannot reply to topics in this forum
You cannot edit your posts in this forum
You cannot delete your posts in this forum
You cannot vote in polls in this forum
You cannot attach files in this forum
You cannot download files in this forum