Today is a free download without charge Download

Маньяк / Maniac (Франк Халфун / Franck Khalfoun) [2012, Франция, США, ужасы, триллер, криминал, BDRip 1080p] Dub + Original Eng

Reply to topic
 
Author
Message

Omen ®

Longevity: 8 years 5 months

Posts: 181087

Торрент-статистика

Post 23-May-2013 17:47

[Quote]

Маньяк / Maniac
Страна: Франция , США
Жанр: ужасы, триллер, криминал
Год выпуска: 2012
Продолжительность: 01:28:50-Перевод: Профессиональный (дублированный)
Cубтитры: нет
Оригинальная аудиодорожка: английский-Режиссер: Франк Халфун / Franck Khalfoun
В ролях: Элайджа Вуд, Нора Арнезедер, Сэмми Ротиби, Меган Даффи, Америка Оливо, Лиэн Балабан, Джен Броберг, Женевьев Александра, Брайан, Эймз, Стеффини Фроммани, ...-Описание: Улицы Лос-Анджелеса кажутся тихими и безопасными, но это не так. Серийный убийца, снимающий скальпы со своих жертв вновь выходит на охоту. Днем, Фрэнк — тихий владелец мастерской по реставрации манекенов, а ночью — безжалостный маньяк, убивающий исключительно женщин. Но его размеренная жизнь тихони-маньяка меняется, когда в ней появляется молодая фото-художница Анна, которой нужна его помощь в проведении выставки. Чем дальше развиваются их отношения, тем сложнее становится Фрэнку сделать выбор — ещё один скальп в качестве трофея или реальная любовь.-Сценаристы: Александр Ажа, Грегори Левассёр, С.А. Розенберг
Продюсеры: Александр Ажа, Тома Лангманн, Грегори Левассёр
Оператор: Максим Александр-Релиз:
Сэмпл: http://sendfile.su/815103
Тип релиза: BDRip
Контейнер: MKV
Видео: MPEG-4 AVC, 1920x804, 12.9 Mbps, 24.000 fps
Аудио: AC-3, 6 channels, 48.0 KHz, 448 Kbps (Rus)
Аудио 2: DTS, 6 channels, 48.0 KHz, 1509 Kbps (Eng)

MediaInfo

General
Unique ID : 178425372032189637020216383553149605517 (0x863B7A07EE6C79EDB6A03341D9A8168D)
Complete name : C:\Users\Y12\Downloads\Maniac.BDRip.1080p.mkv
Format : Matroska
Format version : Version 4 / Version 2
File size : 9.38 GiB
Duration : 1h 28mn
Overall bit rate : 15.1 Mbps
Movie name : Maniac
Encoded date : UTC 2013-05-23 12:50:41
Writing application : mkvmerge v6.2.0 ('Promised Land') built on Apr 28 2013 12:22:01
Writing library : libebml v1.3.0 + libmatroska v1.4.0
Video
ID : 1
Format : AVC
Format/Info : Advanced Video Codec
Format profile : [email protected]
Format settings, CABAC : Yes
Format settings, ReFrames : 5 frames
Codec ID : V_MPEG4/ISO/AVC
Duration : 1h 28mn
Bit rate : 12.9 Mbps
Width : 1 920 pixels
Height : 804 pixels
Display aspect ratio : 2.40:1
Frame rate mode : Constant
Frame rate : 24.000 fps
Color space : YUV
Chroma subsampling : 4:2:0
Bit depth : 8 bits
Scan type : Progressive
Bits/(Pixel*Frame) : 0.347
Stream size : 7.98 GiB (85%)
Writing library : x264 core 130 r2274+704+40 24c804d tMod+MixAQ [[email protected]:2:0 X86_64]
Encoding settings : cabac=1 / ref=5 / deblock=1:-3:-3 / analyse=0x3:0x113 / me=umh / subme=11 / psy=1 / fade_compensate=0.00 / psy_rd=1.05:0.00 / mixed_ref=1 / me_range=48 / chroma_me=1 / trellis=2 / 8x8dct=1 / cqm=0 / deadzone=21,11 / fast_pskip=0 / chroma_qp_offset=-2 / threads=36 / lookahead_threads=6 / sliced_threads=0 / nr=0 / decimate=0 / interlaced=0 / bluray_compat=0 / constrained_intra=0 / fgo=0 / bframes=8 / b_pyramid=2 / b_adapt=2 / b_bias=0 / direct=3 / weightb=1 / open_gop=0 / weightp=2 / keyint=240 / keyint_min=24 / scenecut=40 / intra_refresh=0 / rc=crf / mbtree=0 / crf=18.0000 / qcomp=0.72 / qpmin=0 / qpmax=69 / qpstep=4 / ip_ratio=1.25 / pb_ratio=1.20 / aq=4:0.90 / aq-sensitivity=10.00 / aq-ifactor=1.00 / aq-pfactor=1.00 / aq-bfactor=1.00 / aq2=0
Language : English
Default : Yes
Forced : No
Audio #1
ID : 2
Format : AC-3
Format/Info : Audio Coding 3
Mode extension : CM (complete main)
Format settings, Endianness : Big
Codec ID : A_AC3
Duration : 1h 28mn
Bit rate mode : Constant
Bit rate : 448 Kbps
Channel(s) : 6 channels
Channel positions : Front: L C R, Side: L R, LFE
Sampling rate : 48.0 KHz
Bit depth : 16 bits
Compression mode : Lossy
Stream size : 285 MiB (3%)
Title : Dub
Language : Russian
Default : Yes
Forced : No
Audio #2
ID : 3
Format : DTS
Format/Info : Digital Theater Systems
Mode : 16
Format settings, Endianness : Big
Codec ID : A_DTS
Duration : 1h 28mn
Bit rate mode : Constant
Bit rate : 1 509 Kbps
Channel(s) : 6 channels
Channel positions : Front: L C R, Side: L R, LFE
Sampling rate : 48.0 KHz
Bit depth : 16 bits
Compression mode : Lossy
Stream size : 959 MiB (10%)
Title : Eng
Language : English
Default : No
Forced : No

Скриншоты

Other forum [Profile] [PM]
Display posts from previous:    
Reply to topic

The time now is: Today 13:18

All times are GMT + 3 Hours



You cannot post new topics in this forum
You cannot reply to topics in this forum
You cannot edit your posts in this forum
You cannot delete your posts in this forum
You cannot vote in polls in this forum
You cannot attach files in this forum
You cannot download files in this forum