Today is a free download without charge Download

Мама / Mama (Андрес Мускетти / Andres Musketti) [2013, Испания, Канада, ужасы, фэнтези, триллер, BDRip 720p] Dub + Sub Rus + Original Eng

Reply to topic
 
Author
Message

Omen ®

Longevity: 8 years 5 months

Posts: 181087

Торрент-статистика

Post 23-May-2013 17:47

[Quote]

Мама / Mama
Страна: Испания, Канада
Студия: Toma 78, De Milo
Жанр: ужасы, фэнтези, триллер
Год выпуска: 2013
Продолжительность: 01:40:06
Перевод: Профессиональный (дублированный)
Cубтитры: русские, английские (SRT)
Оригинальная аудиодорожка: английский
Режиссер: Андрес Мускетти / Andres Musketti
Продюсер: Гильермо дель Торо
В ролях: Джессика Честейн, Николай Костер-Вальдау, Меган Чарпентье, Изабель Нелисс, Дэниэл Кэш, Хавьер Ботет, Джейн Моффат, Морган МакГарри, Дэвид Фокс, Доминик Куццокреа
Описание: В заброшенной хижине в чаще леса найдены две девочки. Таинственным образом они прожили в пустом доме пять лет. Найденных сирот забирают единственные родственники, молодая супружеская пара. Но девочки не одиноки, у них есть мама, и она приходит из тьмы...
| |
Доп. информация:
Сохранены оригинальные чаптеры как на Blu-ray.
Fix OCR, italics, overlapping, etc... @ Dorothea.
Исходный WEB-DL куплен в рамках сервиса HDCLUB "Копилка".
Рип от DON
Тип релиза: BDRip 720p
Контейнер: MKV
Видео: 1280x694 (OAR) at 23.976 fps, [email protected], CRF 16.4, ~4055 kbps avg
Аудио #1: Russian: 48 kHz, AC3, 3/2 (L,C,R,l,r) + LFE ch, ~384.00 kbps avg |Дубляж, iTunes Russia|
Аудио #2: English: 48 kHz, DTS, 3/2 (L,C,R,l,r) + LFE ch, ~1536.00 kbps avg
Аудио #3: English: 48 kHz, AC3, 2/0 (L,R) ch, ~192.00 kbps avg |Descriptive|
Аудио #4: English: 48 kHz, AC3, 2/0 (L,R) ch, ~192.00 kbps avg |Commentary with Director/Co-Writer Andy Muschietti And Producer/Co-Writer Barbara Muschietti|
Субтитры: Russian (Forced, iTunes), Russian (iTunes), English, English (SDH), English (SDH-COLORED)
Релиз от:

MediaInfo

General
Unique ID : 191655810454010470857068340879376054501 (0x902F9102028758ABA26F445D405CF8E5)
Complete name : C:\torrents\Mama.2013.720p.BluRay.Rus.3xEng.HDCLUB.mkv
Format : Matroska
Format version : Version 2
File size : 4.43 GiB
Duration : 1h 40mn
Overall bit rate : 6 336 Kbps
Movie name : Mama (2013) - Release for HDCLUB
Encoded date : UTC 2013-05-22 23:32:20
Writing application : mkvmerge v3.4.0 ('Rapunzel') built on May 15 2010 09:38:20
Writing library : libebml v0.8.0 + libmatroska v0.9.0
Attachment : Yes / Yes / Yes
Video
ID : 1
Format : AVC
Format/Info : Advanced Video Codec
Format profile : [email protected]
Format settings, CABAC : Yes
Format settings, ReFrames : 9 frames
Codec ID : V_MPEG4/ISO/AVC
Duration : 1h 40mn
Bit rate : 3 933 Kbps
Width : 1 280 pixels
Height : 694 pixels
Display aspect ratio : 1.85:1
Frame rate mode : Constant
Frame rate : 23.976 fps
Color space : YUV
Chroma subsampling : 4:2:0
Bit depth : 8 bits
Scan type : Progressive
Bits/(Pixel*Frame) : 0.185
Stream size : 2.75 GiB (62%)
Title : Mama (2013) - Release for HDCLUB
Writing library : x264 core 132 r2309 3b1f1f7
Encoding settings : cabac=1 / ref=9 / deblock=1:-2:-2 / analyse=0x3:0x133 / me=esa / subme=10 / psy=1 / psy_rd=1.20:0.05 / mixed_ref=1 / me_range=24 / chroma_me=1 / trellis=2 / 8x8dct=1 / cqm=0 / deadzone=21,11 / fast_pskip=0 / chroma_qp_offset=-3 / threads=3 / lookahead_threads=1 / sliced_threads=0 / nr=0 / decimate=0 / interlaced=0 / bluray_compat=0 / constrained_intra=0 / bframes=6 / b_pyramid=2 / b_adapt=2 / b_bias=0 / direct=3 / weightb=1 / open_gop=0 / weightp=2 / keyint=250 / keyint_min=23 / scenecut=40 / intra_refresh=0 / rc_lookahead=60 / rc=crf / mbtree=0 / crf=16.4 / qcomp=0.70 / qpmin=0 / qpmax=69 / qpstep=4 / vbv_maxrate=50000 / vbv_bufsize=62500 / crf_max=0.0 / nal_hrd=none / ip_ratio=1.40 / pb_ratio=1.30 / aq=1:0.50
Language : English
Default : Yes
Forced : No
Audio #1
ID : 2
Format : AC-3
Format/Info : Audio Coding 3
Mode extension : CM (complete main)
Format settings, Endianness : Big
Codec ID : A_AC3
Duration : 1h 40mn
Bit rate mode : Constant
Bit rate : 384 Kbps
Channel(s) : 6 channels
Channel positions : Front: L C R, Side: L R, LFE
Sampling rate : 48.0 KHz
Bit depth : 16 bits
Compression mode : Lossy
Stream size : 275 MiB (6%)
Title : AC3 5.1 @ 384 kbps - DUB, iTunes Russia
Language : Russian
Default : Yes
Forced : No
Audio #2
ID : 3
Format : DTS
Format/Info : Digital Theater Systems
Mode : 16
Format settings, Endianness : Big
Codec ID : A_DTS
Duration : 1h 40mn
Bit rate mode : Constant
Bit rate : 1 509 Kbps
Channel(s) : 6 channels
Channel positions : Front: L C R, Side: L R, LFE
Sampling rate : 48.0 KHz
Bit depth : 24 bits
Compression mode : Lossy
Delay relative to video : 11ms
Stream size : 1.06 GiB (24%)
Title : DTS 5.1 @ 1536 kbps
Language : English
Default : No
Forced : No
Audio #3
ID : 4
Format : AC-3
Format/Info : Audio Coding 3
Format profile : Dolby Digital
Mode extension : CM (complete main)
Format settings, Endianness : Big
Codec ID : A_AC3
Duration : 1h 40mn
Bit rate mode : Constant
Bit rate : 192 Kbps
Channel(s) : 2 channels
Channel positions : Front: L R
Sampling rate : 48.0 KHz
Bit depth : 16 bits
Compression mode : Lossy
Stream size : 137 MiB (3%)
Title : AC3 2.0 @ 192 kbps - Descriptive
Language : English
Default : No
Forced : No
Audio #4
ID : 5
Format : AC-3
Format/Info : Audio Coding 3
Format profile : Dolby Digital
Mode extension : CM (complete main)
Format settings, Endianness : Big
Codec ID : A_AC3
Duration : 1h 40mn
Bit rate mode : Constant
Bit rate : 192 Kbps
Channel(s) : 2 channels
Channel positions : Front: L R
Sampling rate : 48.0 KHz
Bit depth : 16 bits
Compression mode : Lossy
Stream size : 137 MiB (3%)
Title : AC3 2.0 @ 192 kbps - Commentary with Director/Co-Writer Andy Muschietti And Producer/Co-Writer Barbara Muschietti
Language : English
Default : No
Forced : No
Text #1
ID : 6
Format : UTF-8
Codec ID : S_TEXT/UTF8
Codec ID/Info : UTF-8 Plain Text
Title : Forced
Language : Russian
Default : Yes
Forced : No
Text #2
ID : 7
Format : UTF-8
Codec ID : S_TEXT/UTF8
Codec ID/Info : UTF-8 Plain Text
Language : Russian
Default : No
Forced : No
Text #3
ID : 8
Format : UTF-8
Codec ID : S_TEXT/UTF8
Codec ID/Info : UTF-8 Plain Text
Language : English
Default : No
Forced : No
Text #4
ID : 9
Format : UTF-8
Codec ID : S_TEXT/UTF8
Codec ID/Info : UTF-8 Plain Text
Title : SDH
Language : English
Default : No
Forced : No
Text #5
ID : 10
Format : UTF-8
Codec ID : S_TEXT/UTF8
Codec ID/Info : UTF-8 Plain Text
Title : SDH-COLORED
Language : English
Default : No
Forced : No
Menu
00:00:00.000 : en:00:00:00.000
00:04:57.881 : en:00:04:57.881
00:11:47.165 : en:00:11:47.165
00:17:33.761 : en:00:17:33.761
00:20:51.417 : en:00:20:51.417
00:26:08.734 : en:00:26:08.734
00:32:02.796 : en:00:32:02.796
00:36:53.169 : en:00:36:53.169
00:40:12.535 : en:00:40:12.535
00:44:43.222 : en:00:44:43.222
00:47:35.186 : en:00:47:35.186
00:53:04.390 : en:00:53:04.390
00:58:55.282 : en:00:58:55.282
01:04:38.166 : en:01:04:38.166
01:11:00.339 : en:01:11:00.339
01:16:49.146 : en:01:16:49.146
01:22:00.999 : en:01:22:00.999
01:25:14.526 : en:01:25:14.526
01:29:15.058 : en:01:29:15.058
01:35:29.349 : en:01:35:29.349

Скриншоты

Сравнение Source vs Encode









Other forum [Profile] [PM]
Display posts from previous:    
Reply to topic

The time now is: Today 20:25

All times are GMT + 3 Hours



You cannot post new topics in this forum
You cannot reply to topics in this forum
You cannot edit your posts in this forum
You cannot delete your posts in this forum
You cannot vote in polls in this forum
You cannot attach files in this forum
You cannot download files in this forum