Today is a free download without charge Download

Любовь по-взрослому / This Is 40 (Джудд Апатоу / Judd Apatow) [2012, США, комедия, BDRip 720p] [Theatrical Cut] Dub + Original Eng + Sub (Rus, Eng)

Reply to topic
 
Author
Message

Omen ®

Longevity: 8 years 5 months

Posts: 181087

Торрент-статистика

Post 23-May-2013 17:47

[Quote]

Любовь по-взрослому / This Is 40
Страна: США
Жанр: комедия
Год выпуска: 2012
Продолжительность: 02:13:44-Перевод: Профессиональный (дублированный)
Cубтитры: русские (*форсированные, полные), английские
Оригинальная аудиодорожка: английский-Режиссер: Джудд Апатоу / Judd Apatow
В ролях: Пол Радд, Лесли Манн, Мелисса МакКарти, Джон Литгоу, Меган Фокс, Альберт Брукс, Лина Данэм, Джейсон Сигел, Шарлин Йи, Крис О’Дауд, ...-Описание: Спин-офф комедии «Немножко беременна» 2007 года. Взгляд на жизнь Пита и Дебби спустя несколько лет после событий первого фильма: к сложностям брака прибавляются финансовые проблемы.-Сценарий: Джудд Апатоу
Продюсеры: Джудд Апатоу, Бэрри Мендел, Клэйтон Таунсенд
Оператор: Фидон Папамайкл-Релиз:
Сэмпл: http://multi-up.com/868340
Тип релиза: BDRip
Контейнер: MKV
Видео: MPEG-4 AVC, 1280x534, 4970 Kbps, 23.976 fps
Аудио: AC-3, 6 channels, 48.0 KHz, 384 Kbps (Rus)
Аудио 2: DTS, 6 channels, 48.0 KHz, 1509 Kbps (Eng)
Доп. инфо: *форсированные субтитры на надписи и т.д.

MediaInfo

General
Unique ID : 192725528749583480431725014221833523446 (0x90FD963118F69BF0AFFDE5E299DA50F6)
Complete name : C:\Users\Y12\Downloads\This.Is.40.BDRip.720p.mkv
Format : Matroska
Format version : Version 4 / Version 2
File size : 6.54 GiB
Duration : 2h 13mn
Overall bit rate : 7 003 Kbps
Movie name : This Is 40
Encoded date : UTC 2013-05-23 09:41:38
Writing application : mkvmerge v6.2.0 ('Promised Land') built on Apr 28 2013 12:22:01
Writing library : libebml v1.3.0 + libmatroska v1.4.0
Video
ID : 1
Format : AVC
Format/Info : Advanced Video Codec
Format profile : [email protected]
Format settings, CABAC : Yes
Format settings, ReFrames : 12 frames
Codec ID : V_MPEG4/ISO/AVC
Duration : 2h 13mn
Bit rate : 4 970 Kbps
Width : 1 280 pixels
Height : 534 pixels
Display aspect ratio : 2.40:1
Frame rate mode : Constant
Frame rate : 23.976 fps
Color space : YUV
Chroma subsampling : 4:2:0
Bit depth : 8 bits
Scan type : Progressive
Bits/(Pixel*Frame) : 0.303
Stream size : 4.64 GiB (71%)
Writing library : x264 core 132 r2309kMod 3b1f1f7
Encoding settings : cabac=1 / ref=12 / deblock=1:-3:-3 / analyse=0x3:0x113 / me=umh / subme=11 / psy=1 / fade_compensate=0.00 / psy_rd=1.05:0.00 / mixed_ref=1 / me_range=48 / chroma_me=1 / trellis=2 / 8x8dct=1 / cqm=0 / deadzone=21,11 / fast_pskip=0 / chroma_qp_offset=-2 / threads=12 / lookahead_threads=2 / sliced_threads=0 / nr=0 / decimate=1 / interlaced=0 / bluray_compat=0 / constrained_intra=0 / bframes=8 / b_pyramid=2 / b_adapt=2 / b_bias=0 / direct=3 / weightb=1 / open_gop=0 / weightp=2 / keyint=250 / keyint_min=23 / scenecut=40 / intra_refresh=0 / rc_lookahead=60 / rc=crf / mbtree=1 / crf=16.5000 / qcomp=0.90 / qpmin=0 / qpmax=69 / qpstep=4 / vbv_maxrate=50000 / vbv_bufsize=62500 / crf_max=0.0 / nal_hrd=none / ip_ratio=1.30 / aq=1:0.85
Language : English
Default : Yes
Forced : No
Matrix coefficients : BT.709
Audio #1
ID : 2
Format : AC-3
Format/Info : Audio Coding 3
Mode extension : CM (complete main)
Format settings, Endianness : Big
Codec ID : A_AC3
Duration : 2h 13mn
Bit rate mode : Constant
Bit rate : 384 Kbps
Channel(s) : 6 channels
Channel positions : Front: L C R, Side: L R, LFE
Sampling rate : 48.0 KHz
Bit depth : 16 bits
Compression mode : Lossy
Stream size : 367 MiB (5%)
Title : Dub
Language : Russian
Default : Yes
Forced : No
Audio #2
ID : 3
Format : DTS
Format/Info : Digital Theater Systems
Mode : 16
Format settings, Endianness : Big
Codec ID : A_DTS
Duration : 2h 13mn
Bit rate mode : Constant
Bit rate : 1 509 Kbps
Channel(s) : 6 channels
Channel positions : Front: L C R, Side: L R, LFE
Sampling rate : 48.0 KHz
Bit depth : 24 bits
Compression mode : Lossy
Stream size : 1.41 GiB (22%)
Title : Eng
Language : English
Default : No
Forced : No
Text #1
ID : 4
Format : UTF-8
Codec ID : S_TEXT/UTF8
Codec ID/Info : UTF-8 Plain Text
Title : Forced
Language : Russian
Default : Yes
Forced : No
Text #2
ID : 5
Format : UTF-8
Codec ID : S_TEXT/UTF8
Codec ID/Info : UTF-8 Plain Text
Title : Full
Language : Russian
Default : No
Forced : No
Text #3
ID : 6
Format : UTF-8
Codec ID : S_TEXT/UTF8
Codec ID/Info : UTF-8 Plain Text
Language : English
Default : No
Forced : No
Menu
00:00:00.000 : en:00:00:00.000
00:06:54.413 : en:00:06:54.413
00:14:58.188 : en:00:14:58.188
00:21:22.739 : en:00:21:22.739
00:26:22.247 : en:00:26:22.247
00:33:26.963 : en:00:33:26.963
00:40:13.077 : en:00:40:13.077
00:48:30.407 : en:00:48:30.407
00:56:31.179 : en:00:56:31.179
01:01:34.732 : en:01:01:34.732
01:07:10.526 : en:01:07:10.526
01:14:37.347 : en:01:14:37.347
01:24:33.193 : en:01:24:33.193
01:31:19.181 : en:01:31:19.181
01:38:07.715 : en:01:38:07.715
01:46:57.869 : en:01:46:57.869
01:52:14.936 : en:01:52:14.936
01:57:59.655 : en:01:57:59.655
02:04:08.232 : en:02:04:08.232
02:08:37.918 : en:02:08:37.918

Скриншоты

Other forum [Profile] [PM]
Similar theme
Forum Topic Author Torrent Replies Last Post
./templates/default/images/folder_dl.gif Техническая и научно-популярная литература Вадим Долгов | Потаенная жизнь Древней Руси. Быт, нравы, любовь [2009] [FB2] Omen
0 | 1

0 | 567

1

2013-04-30 18:33
Omen Latest
Display posts from previous:    
Reply to topic

The time now is: Today 01:13

All times are GMT + 3 Hours



You cannot post new topics in this forum
You cannot reply to topics in this forum
You cannot edit your posts in this forum
You cannot delete your posts in this forum
You cannot vote in polls in this forum
You cannot attach files in this forum
You cannot download files in this forum