Today is a free download without charge Download

Мама / Mama (Андрес Мускетти / Andrés Muschietti) [2013, Испания, Канада, ужасы, фэнтези, триллер, BDRip 720p] Dub + VO (zamez) + Original (Eng) + Subs (Rus, Eng, Fre, Swe)

Reply to topic
 
Author
Message

Omen ®

Longevity: 8 years 5 months

Posts: 181087

Торрент-статистика

Post 23-May-2013 13:43

[Quote]

Мама / Mama Страна: Испания, Канада
Студия: Toma 78, De Milo
Жанр: ужасы, фэнтези, триллер
Год выпуска: 2013
Продолжительность: 01:40:06
Перевод:
  • Профессиональный (дублированный) itunes
  • Одноголосый закадровый zamez
Cубтитры: английские, английские (SDH), русские (Daria_N), русские, русские (форсированные), французские, шведские
Оригинальная аудиодорожка: английский
Режиссер: Андрес Мускетти / Andrés Muschietti
В ролях: Джессика Честейн, Николай Костер-Вальдау, Меган Чарпентье, Изабель Нелисс, Дэниэл Кэш, Хавьер Ботет, Джейн Моффат, Морган МакГарри, Дэвид Фокс, Доминик Куццокреа
Описание:
В заброшенной хижине в чаще леса найдены две девочки. Таинственным образом они прожили в пустом доме пять лет. Найденных сирот забирают единственные родственники, молодая супружеская пара. Но девочки не одиноки, у них есть мама, и она приходит из тьмы…
- -Тип релиза: BDRip 720p (рип от DON)
Контейнер: MKV
Видео: AVC (x264), 1280x694 (1,85:1) at 23,976 fps, 3944 Кbps, 0.185 bpp
Аудио 1: AC3; 384 Kbps; CBR; 6 ch; 48 khz | Дубляж |
Аудио 2: AC3; 640 Kbps; CBR; 6 ch; 48 khz | VO - zamez |
Аудио 3: AC3; 640 Kbps; CBR; 6 ch; 48 khz | Английский |-Аудио 4: AC3; 448 Kbps; CBR; 6 ch; 48 khz | Любительский Дубляж | скачать отдельно тут ---> https://docs.google.com/file/d/0B4HTz0CaM4a2bGNwZ05mRmpZSzA/edit
Аудио 5: AC3; 640 Kbps; CBR; 6 ch; 48 khz | VO - xixidok | скачать отдельно тут ---> https://docs.google.com/file/d/0B4HTz0CaM4a2cklIU1diUmppZFE/edit
Аудио 6: AC3; 192 Kbps; CBR; 2 ch; 48 khz | VO - VANO | скачать отдельно тут ---> https://docs.google.com/file/d/0B4HTz0CaM4a2RzJTR0c1M1RxTWM/edit
Формат субтитров: softsub (SRT); softsub (SSA/ASS)

Скриншоты || x264 Info || MediaInfo || Notes

MediaInfo

Код:
Общее
Уникальный идентификатор                 : 225017181935107438187342629670213337636 (0xA948BB9D4E463E72ABE41EC3B55F4224)
Полное имя                               : Мама.2013.D.720p.BluRay.x264-DON.mkv
Формат                                   : Matroska
Версия формата                           : Version 4 / Version 2
Размер файла                             : 4,00 Гбайт
Продолжительность                        : 1 ч. 40 м.
Общий поток                              : 5722 Кбит/сек
Название фильма                          : profile.php?mode=viewprofile&u=22488948
Дата кодирования                         : UTC 2013-05-23 07:41:01
Программа кодирования                    : mkvmerge v6.2.0 ('Promised Land') built on Apr 28 2013 12:22:01
Библиотека кодирования                   : libebml v1.3.0 + libmatroska v1.4.0
Attachment                               : Yes / Yes / Yes
Видео
Идентификатор                            : 1
Формат                                   : AVC
Формат/Информация                        : Advanced Video Codec
Профиль формата                          : [email protected]
Параметр CABAC формата                   : Да
Параметр ReFrames формата                : 9 кадров
Идентификатор кодека                     : V_MPEG4/ISO/AVC
Продолжительность                        : 1 ч. 40 м.
Битрейт                                  : 3944 Кбит/сек
Ширина                                   : 1280 пикселей
Высота                                   : 694 пикселя
Соотношение сторон                       : 1,85:1
Режим частоты кадров                     : Постоянный
Частота кадров                           : 23,976 кадра/сек
Цветовое пространство                    : YUV
Субдискретизация насыщенности            : 4:2:0
Битовая глубина                          : 8 бит
Тип развёртки                            : Прогрессивная
Бит/(Пиксели*Кадры)                      : 0.185
Размер потока                            : 2,76 Гбайт (69%)
Библиотека кодирования                   : x264 core 132 r2309 3b1f1f7
Настройки программы                      : cabac=1 / ref=9 / deblock=1:-2:-2 / analyse=0x3:0x133 / me=esa / subme=10 / psy=1 / psy_rd=1.20:0.05 / mixed_ref=1 / me_range=24 / chroma_me=1 / trellis=2 / 8x8dct=1 / cqm=0 / deadzone=21,11 / fast_pskip=0 / chroma_qp_offset=-3 / threads=3 / lookahead_threads=1 / sliced_threads=0 / nr=0 / decimate=0 / interlaced=0 / bluray_compat=0 / constrained_intra=0 / bframes=6 / b_pyramid=2 / b_adapt=2 / b_bias=0 / direct=3 / weightb=1 / open_gop=0 / weightp=2 / keyint=250 / keyint_min=23 / scenecut=40 / intra_refresh=0 / rc_lookahead=60 / rc=crf / mbtree=0 / crf=16.4 / qcomp=0.70 / qpmin=0 / qpmax=69 / qpstep=4 / vbv_maxrate=50000 / vbv_bufsize=62500 / crf_max=0.0 / nal_hrd=none / ip_ratio=1.40 / pb_ratio=1.30 / aq=1:0.50
Язык                                     : English
Default                                  : Да
Forced                                   : Нет
Аудио #1
Идентификатор                            : 2
Формат                                   : AC-3
Формат/Информация                        : Audio Coding 3
Расширение режима                        : CM (complete main)
Параметр Endianness формата              : Big
Идентификатор кодека                     : A_AC3
Продолжительность                        : 1 ч. 40 м.
Вид битрейта                             : Постоянный
Битрейт                                  : 384 Кбит/сек
Каналы                                   : 6 каналов
Расположение каналов                     : Front: L C R, Side: L R, LFE
Частота                                  : 48,0 КГц
Битовая глубина                          : 16 бит
Метод сжатия                             : С потерями
Размер потока                            : 275 Мбайт (7%)
Заголовок                                : D [iTunes]
Язык                                     : Russian
Default                                  : Да
Forced                                   : Нет
Аудио #2
Идентификатор                            : 3
Формат                                   : AC-3
Формат/Информация                        : Audio Coding 3
Расширение режима                        : CM (complete main)
Параметр Endianness формата              : Big
Идентификатор кодека                     : A_AC3
Продолжительность                        : 1 ч. 40 м.
Вид битрейта                             : Постоянный
Битрейт                                  : 640 Кбит/сек
Каналы                                   : 6 каналов
Расположение каналов                     : Front: L C R, Side: L R, LFE
Частота                                  : 48,0 КГц
Битовая глубина                          : 16 бит
Метод сжатия                             : С потерями
Размер потока                            : 458 Мбайт (11%)
Заголовок                                : VO [zamez]
Язык                                     : Russian
Default                                  : Нет
Forced                                   : Нет
Аудио #3
Идентификатор                            : 4
Формат                                   : AC-3
Формат/Информация                        : Audio Coding 3
Расширение режима                        : CM (complete main)
Параметр Endianness формата              : Big
Идентификатор кодека                     : A_AC3
Продолжительность                        : 1 ч. 40 м.
Вид битрейта                             : Постоянный
Битрейт                                  : 640 Кбит/сек
Каналы                                   : 6 каналов
Расположение каналов                     : Front: L C R, Side: L R, LFE
Частота                                  : 48,0 КГц
Битовая глубина                          : 16 бит
Метод сжатия                             : С потерями
Размер потока                            : 458 Мбайт (11%)
Язык                                     : English
Default                                  : Нет
Forced                                   : Нет
Текст #1
Идентификатор                            : 5
Формат                                   : UTF-8
Идентификатор кодека                     : S_TEXT/UTF8
Идентификатор кодека/Информация          : UTF-8 Plain Text
Заголовок                                : iTunes // forced
Язык                                     : Russian
Default                                  : Да
Forced                                   : Нет
Текст #2
Идентификатор                            : 6
Формат                                   : UTF-8
Идентификатор кодека                     : S_TEXT/UTF8
Идентификатор кодека/Информация          : UTF-8 Plain Text
Заголовок                                : iTunes
Язык                                     : Russian
Default                                  : Нет
Forced                                   : Нет
Текст #3
Идентификатор                            : 7
Формат                                   : UTF-8
Идентификатор кодека                     : S_TEXT/UTF8
Идентификатор кодека/Информация          : UTF-8 Plain Text
Заголовок                                : [Daria_N] // notabenoid
Язык                                     : Russian
Default                                  : Нет
Forced                                   : Нет
Текст #4
Идентификатор                            : 8
Формат                                   : UTF-8
Идентификатор кодека                     : S_TEXT/UTF8
Идентификатор кодека/Информация          : UTF-8 Plain Text
Язык                                     : English
Default                                  : Нет
Forced                                   : Нет
Текст #5
Идентификатор                            : 9
Формат                                   : ASS
Идентификатор кодека                     : S_TEXT/ASS
Идентификатор кодека/Информация          : Advanced Sub Station Alpha
Метод сжатия                             : Без потерь
Заголовок                                : SSA SDH
Язык                                     : English
Default                                  : Нет
Forced                                   : Нет
Текст #6
Идентификатор                            : 10
Формат                                   : ASS
Идентификатор кодека                     : S_TEXT/ASS
Идентификатор кодека/Информация          : Advanced Sub Station Alpha
Метод сжатия                             : Без потерь
Заголовок                                : SSA
Язык                                     : English
Default                                  : Нет
Forced                                   : Нет
Текст #7
Идентификатор                            : 11
Формат                                   : ASS
Идентификатор кодека                     : S_TEXT/ASS
Идентификатор кодека/Информация          : Advanced Sub Station Alpha
Метод сжатия                             : Без потерь
Заголовок                                : SSA
Язык                                     : French
Default                                  : Нет
Forced                                   : Нет
Текст #8
Идентификатор                            : 12
Формат                                   : ASS
Идентификатор кодека                     : S_TEXT/ASS
Идентификатор кодека/Информация          : Advanced Sub Station Alpha
Метод сжатия                             : Без потерь
Заголовок                                : SSA
Язык                                     : Swedish
Default                                  : Нет
Forced                                   : Нет
Меню
00:00:00.000                             : en:00:00:00.000
00:04:57.881                             : en:00:04:57.881
00:11:47.165                             : en:00:11:47.165
00:17:33.761                             : en:00:17:33.761
00:20:51.417                             : en:00:20:51.417
00:26:08.734                             : en:00:26:08.734
00:32:02.796                             : en:00:32:02.796
00:36:53.169                             : en:00:36:53.169
00:40:12.535                             : en:00:40:12.535
00:44:43.222                             : en:00:44:43.222
00:47:35.186                             : en:00:47:35.186
00:53:04.390                             : en:00:53:04.390
00:58:55.282                             : en:00:58:55.282
01:04:38.166                             : en:01:04:38.166
01:11:00.339                             : en:01:11:00.339
01:16:49.146                             : en:01:16:49.146
01:22:00.999                             : en:01:22:00.999
01:25:14.526                             : en:01:25:14.526
01:29:15.058                             : en:01:29:15.058
01:35:29.349                             : en:01:35:29.349

x264 Info

x264 [info]: frame I:1176 Avg QP:13.71 size:120799
x264 [info]: frame P:28645 Avg QP:15.73 size: 45943
x264 [info]: frame B:114184 Avg QP:18.08 size: 13894
x264 [info]: consecutive B-frames: 1.5% 1.4% 6.0% 11.2% 18.3% 53.6% 5.1%

Source vs Encode

DON......vs.......HDWinG

Цитата:
  • Озвучка от Вячеслав Замез, доступна благодаря спонсорам: dart84, sstonecold и будулайроманов
Other forum [Profile] [PM]
Display posts from previous:    
Reply to topic

The time now is: Today 22:49

All times are GMT + 3 Hours



You cannot post new topics in this forum
You cannot reply to topics in this forum
You cannot edit your posts in this forum
You cannot delete your posts in this forum
You cannot vote in polls in this forum
You cannot attach files in this forum
You cannot download files in this forum