Today is a free download without charge Download

Остров Святых. Легенды и чудеса монастырей Кипра (2005) DVD5

Reply to topic
 
Author
Message

Koralina ®

Longevity: 9 years 1 month

Posts: 994

Location: Lithuania

Торрент-статистика

Post 23-May-2013 13:01

[Quote]

Остров Святых. Легенды и чудеса монастырей Кипра (2005) DVD5- Название: Остров Святых. Легенды и чудеса монастырей Кипра
Режиссер: А. Андреев
Год выпуска: 2005
Жанр: Документальный
Описание:
Кипр для людей верующих, православных-это христианская святыня, где в течиние веков, тысячилетий хранят веру, надежду и любовь к Богу.
О легендах и тайнах монастырей Кипра, об особых отношениях киприотов и россиян двух великих православных народов, расказывает увлекательный фильм-путишествие
Продолжительность: 00:42:15
Видеокодек: MPEG 2, PAL
Битрейт видео: ~8000 Кбит/сек
Размер кадра: 720/576
Качество видео: DVD5
Аудиокодек: AC3 2.0
Битрейт аудио: 192 Кбит/сек, 48.0 КГц

DVDInfo

Title: видео
Size: 2.46 Gb ( 2 580 950,00 KBytes ) - DVD-5
Enabled regions: 1, 2, 3, 4, 5, 6
VTS_01 :
Play Length: 00:42:15
Video: PAL 4:3 (720x576) VBR
Audio:
  • Russian (Dolby AC3, 2 ch)

M.I.

Общее
Полное имя : H:\Остров Святых. Легенды и чудеса монастырей Кипра\видео\VTS_01_1.VOB
Формат : MPEG-PS
Размер файла : 1024 Мбайт
Продолжительность : 17 м.
Режим общего битрейта : Переменный
Общий поток : 8338 Кбит/сек
Видео
Идентификатор : 224 (0xE0)
Формат : MPEG Video
Версия формата : Version 2
Профиль формата : [email protected]
Параметр BVOP формата : Да
Параметр матрицы формата : По умолчанию
Параметр GOP формата : Variable
Продолжительность : 17 м.
Вид битрейта : Переменный
Битрейт : 8000 Кбит/сек
Ширина : 720 пикселей
Высота : 576 пикселей
Соотношение сторон : 4:3
Частота кадров : 25,000 кадров/сек
Стандарт вещания : PAL
Цветовое пространство : YUV
Субдискретизация насыщенности : 4:2:0
Битовая глубина : 8 бит
Тип развёртки : Чересстрочная
Порядок развёртки : Верхнее поле первое
Метод сжатия : С потерями
Бит/(Пиксели*Кадры) : 0.772
Размер потока : 980 Мбайт (96%)
Основные цвета : BT.601 PAL
Характеристики трансфера : BT.470 System B, BT.470 System G
Коэффициенты матрицы : BT.601
Аудио
Идентификатор : 189 (0xBD)-128 (0x80)
Формат : AC-3
Формат/Информация : Audio Coding 3
Расширение режима : CM (complete main)
Параметр Endianness формата : Big
Режим смешивания : DVD-Video
Продолжительность : 17 м.
Вид битрейта : Постоянный
Битрейт : 192 Кбит/сек
Каналы : 2 канала
Расположение каналов : Front: L R
Частота : 48,0 КГц
Битовая глубина : 16 бит
Метод сжатия : С потерями
Размер потока : 23,6 Мбайт (2%)
Скриншоты:
       

_________________
Other forum [Profile] [PM]
Similar theme
Forum Topic Author Torrent Replies Last Post
./templates/default/images/folder_dl.gif Новинки (BD|HDTV|DVD) Поезд в Пусан 2: Полуостров / Bando / Train to Busan 2 (Ён Сан-хо) [2020 г., Ужасы, боевик, WEB-DL 720p] DUB (Чистый звук) Theseus
1 | 0

0 | 408

1

2020-08-26 21:31
Theseus Latest
Display posts from previous:    
Reply to topic

The time now is: Today 21:23

All times are GMT + 3 Hours



You cannot post new topics in this forum
You cannot reply to topics in this forum
You cannot edit your posts in this forum
You cannot delete your posts in this forum
You cannot vote in polls in this forum
You cannot attach files in this forum
You cannot download files in this forum