Today is a free download without charge Download

Откровения / Elles (Малгожата Шумовска / Malgorzata Szumowska) [2011, Франция, Польша, Германия, драма, BDRip 720p] MVO (R5) + Original (Fre) + Subs (Rus, Eng, Fre)

Reply to topic
 
Author
Message

Omen ®

Longevity: 8 years 5 months

Posts: 181087

Торрент-статистика

Post 23-May-2013 01:33

[Quote]

Откровения / Elles Страна: Франция, Польша, Германия
Студия: Slot Machine, Zentropa International Poland (co-production) , ...
Жанр: драма
Год выпуска: 2011
Продолжительность: 01:33:23
Перевод: Профессиональный (многоголосый закадровый) BDRUS
Cубтитры: английские, русские, французские (форсированные на болгарскую речь)
Оригинальная аудиодорожка: французский
Режиссер: Малгожата Шумовска / Malgorzata Szumowska
В ролях: Жюльет Бинош, Анаис Демустье, Джоэнна Кулиг, Луи-До де Ланкесэ, Кристина Янда, Анджей Хыра, Али Мархьяр, Жан-Мари Бинош, Франсуа Сивиль, Пабло Бюне
Описание:
Журналистка Анна, занимающаяся расследованиями для журнала Elle, увлечена новой темой. Она знакомится с группой юных студенток, которые зарабатывают на свое обучение проституцией. Частые встречи уравновешенной дамы и любвеобильных девушек вызывают у Анны чувственный ренессанс и заставляют переосмыслить свои убеждения о деньгах, семье и сексе.
- ||-Тип релиза: BDRip 720p (рип от TayTO)

Контейнер: MKV
Видео: AVC (x264), 1280x544 (2,35:1) at 25,000 fps, 5118 Кbps
Аудио 1: AC3; 192 Kbps; CBR; 2 ch; 48 khz | P, MVO - R5 |
Аудио 2: FLAC; ~ 628 Kbps; VBR; 2 ch; 48 khz; 16 bit | P, MVO - R5 |
Аудио 3: DTS; 1536 Kbps; CBR; 6 ch; 48 khz; 24 bit | Французский |
Формат субтитров: softsub (SRT)

Скриншоты || x264 Info || MediaInfo || Notes

Notes:

Цитата:
  • Аудио дорожка №1, RU субтитры взяты с Elles (2011) Blu-ray 1080p AVC DTS-HD 2.0 thx: by crazy_gringo
  • Английские субтитры взяты с Elles.2011.1080p.BluRay.x264-SONiDO
  • Поименованные главы взяты с Elles.2011.LiMiTED.NTSC.DVDR-LPD

MediaInfo

Код:
Общее
Уникальный идентификатор                 : 242883930659685164758695613785302801317 (0xB6B9BE56761D7947997DBDFD236E9BA5)
Полное имя                               : Откровения.2011.P.720p.BluRay.x264-TayTO.mkv
Формат                                   : Matroska
Версия формата                           : Version 4 / Version 2
Размер файла                             : 5,05 Гбайт
Продолжительность                        : 1 ч. 35 м.
Режим общего битрейта                    : Переменный
Общий поток                              : 7582 Кбит/сек
Название фильма                          : profile.php?mode=viewprofile&u=22488948
Дата кодирования                         : UTC 2013-05-20 12:37:50
Программа кодирования                    : mkvmerge v6.2.0 ('Promised Land') built on Apr 28 2013 12:22:01
Библиотека кодирования                   : libebml v1.3.0 + libmatroska v1.4.0
Видео
Идентификатор                            : 1
Формат                                   : AVC
Формат/Информация                        : Advanced Video Codec
Профиль формата                          : [email protected]
Параметр CABAC формата                   : Да
Параметр ReFrames формата                : 12 кадров
Идентификатор кодека                     : V_MPEG4/ISO/AVC
Продолжительность                        : 1 ч. 35 м.
Ширина                                   : 1280 пикселей
Высота                                   : 544 пикселя
Соотношение сторон                       : 2,35:1
Режим частоты кадров                     : Постоянный
Частота кадров                           : 25,000 кадров/сек
Цветовое пространство                    : YUV
Субдискретизация насыщенности            : 4:2:0
Битовая глубина                          : 8 бит
Тип развёртки                            : Прогрессивная
Библиотека кодирования                   : x264 core 125 r2208 d9d2288
Настройки программы                      : cabac=1 / ref=12 / deblock=1:-3:-3 / analyse=0x3:0x113 / me=tesa / subme=11 / psy=1 / psy_rd=1.05:0.00 / mixed_ref=1 / me_range=16 / chroma_me=1 / trellis=2 / 8x8dct=1 / cqm=0 / deadzone=21,11 / fast_pskip=0 / chroma_qp_offset=-2 / threads=12 / lookahead_threads=2 / sliced_threads=0 / nr=0 / decimate=0 / interlaced=0 / bluray_compat=0 / constrained_intra=0 / bframes=7 / b_pyramid=2 / b_adapt=2 / b_bias=0 / direct=3 / weightb=1 / open_gop=0 / weightp=2 / keyint=250 / keyint_min=25 / scenecut=40 / intra_refresh=0 / rc=crf / mbtree=0 / crf=16.5 / qcomp=0.55 / qpmin=0 / qpmax=69 / qpstep=4 / ip_ratio=1.40 / pb_ratio=1.30 / aq=1:0.60
Язык                                     : English
Default                                  : Да
Forced                                   : Нет
Коэффициенты матрицы                     : BT.709
Аудио #1
Идентификатор                            : 2
Формат                                   : AC-3
Формат/Информация                        : Audio Coding 3
Расширение режима                        : CM (complete main)
Параметр Endianness формата              : Big
Идентификатор кодека                     : A_AC3
Продолжительность                        : 1 ч. 35 м.
Вид битрейта                             : Постоянный
Битрейт                                  : 192 Кбит/сек
Каналы                                   : 2 канала
Расположение каналов                     : Front: L R
Частота                                  : 48,0 КГц
Битовая глубина                          : 16 бит
Метод сжатия                             : С потерями
Размер потока                            : 131 Мбайт (3%)
Заголовок                                : P, MVO [BDRUS] / lossy
Язык                                     : Russian
Default                                  : Да
Forced                                   : Нет
Аудио #2
Идентификатор                            : 3
Формат                                   : FLAC
Формат/Информация                        : Free Lossless Audio Codec
Идентификатор кодека                     : A_FLAC
Продолжительность                        : 1 ч. 35 м.
Вид битрейта                             : Переменный
Каналы                                   : 2 канала
Частота                                  : 48,0 КГц
Битовая глубина                          : 16 бит
Заголовок                                : P, MVO [BDRUS] / lossless
Библиотека кодирования                   : libFLAC 1.2.1 (UTC 2007-09-17)
Язык                                     : Russian
Default                                  : Нет
Forced                                   : Нет
Аудио #3
Идентификатор                            : 4
Формат                                   : DTS
Формат/Информация                        : Digital Theater Systems
Режим                                    : 16
Параметр Endianness формата              : Big
Идентификатор кодека                     : A_DTS
Продолжительность                        : 1 ч. 35 м.
Вид битрейта                             : Постоянный
Битрейт                                  : 1509 Кбит/сек
Каналы                                   : 6 каналов
Расположение каналов                     : Front: L C R, Side: L R, LFE
Частота                                  : 48,0 КГц
Битовая глубина                          : 24 бит
Метод сжатия                             : С потерями
Размер потока                            : 1,00 Гбайт (20%)
Язык                                     : French
Default                                  : Нет
Forced                                   : Нет
Текст #1
Идентификатор                            : 5
Формат                                   : UTF-8
Идентификатор кодека                     : S_TEXT/UTF8
Идентификатор кодека/Информация          : UTF-8 Plain Text
Язык                                     : Russian
Default                                  : Нет
Forced                                   : Нет
Текст #2
Идентификатор                            : 6
Формат                                   : UTF-8
Идентификатор кодека                     : S_TEXT/UTF8
Идентификатор кодека/Информация          : UTF-8 Plain Text
Язык                                     : English
Default                                  : Нет
Forced                                   : Нет
Текст #3
Идентификатор                            : 7
Формат                                   : UTF-8
Идентификатор кодека                     : S_TEXT/UTF8
Идентификатор кодека/Информация          : UTF-8 Plain Text
Заголовок                                : forced
Язык                                     : French
Default                                  : Нет
Forced                                   : Нет
Меню
00:00:00.000                             : en:1:  An Article
00:06:42.600                             : en:2:  Charlotte
00:13:02.000                             : en:3:  Alicja
00:27:13.000                             : en:4:  Bored Husbands
00:40:03.000                             : en:5:  Completely Normal
00:51:59.000                             : en:6:  The Lies
00:58:46.000                             : en:7:   Privileges
01:08:17.000                             : en:8:  Moms
01:19:25.000                             : en:9:  Dinner Party
01:28:50.000                             : en:10:  Repetitive

x264 Info

x264 [info]: frame I:645 Avg QP:15.56 size: 95302
x264 [info]: frame P:29495 Avg QP:17.02 size: 49767
x264 [info]: frame B:112850 Avg QP:19.54 size: 19713
x264 [info]: consecutive B-frames: 1.6% 2.4% 6.2% 11.6% 13.2% 57.7% 5.5% 1.6%
Other forum [Profile] [PM]
Display posts from previous:    
Reply to topic

The time now is: Today 19:31

All times are GMT + 3 Hours



You cannot post new topics in this forum
You cannot reply to topics in this forum
You cannot edit your posts in this forum
You cannot delete your posts in this forum
You cannot vote in polls in this forum
You cannot attach files in this forum
You cannot download files in this forum