Today is a free download without charge Download

Неправильно / Wrong (Квентин Дюпьё / Quentin Dupieux) [2012, Франция, США, драма, комедия, BDRip 1080p] MVO + Original (Eng) + Sub (Eng)

Reply to topic
 
Author
Message

Omen ®

Longevity: 8 years 5 months

Posts: 181087

Торрент-статистика

Post 23-May-2013 01:33

[Quote]

Неправильно / Wrong Страна: Франция, США
Студия: Realitism Films, arte France Cinéma (in co-production with), ...
Жанр: драма, комедия
Год выпуска: 2012
Продолжительность: 01:33:28
Перевод: Профессиональный (многоголосый закадровый) now
Cубтитры: английские (SDH), английские
Оригинальная аудиодорожка: английский
Режиссер: Квентин Дюпьё / Quentin Dupieux
В ролях: Джек Плотник, Эрик Жюдор, Алексис Дзена, Стив Литтл, Уильям Фихтнер, Риган Барнс, Марк Бёрнэм, Арден Майрин, Мэйл Флэнеган, Тодд Гибенхейн
Описание:
Проснувшись однажды утром, Дольф Спрингер понимает, что потерял любовь своей жизни — Пола, свою собаку. Пытаясь найти Пола, Дольф успевает принять случайное, но значительное участие в жизни окружающих: нимфоманки из доставки пиццы; соседа, помешанного на утренних пробежках; французско-мексиканского садовника-оппортуниста и эксцентричного детектива. Расследование пропажи Пола не приносит быстрых результатов, и довольно скоро становится ясно, в поисках любимой собаки Дольф рискует потерять еще кое-что важное. Например, рассудок.
- ||-Тип релиза: BDRip 1080p (рип от HDWinG)

Контейнер: MKV
Видео: AVC (x264), 1920x1036 (1,85:1) at 23,976 fps, 10660 Кbps, 0.224 bpp
Аудио 1: AC3; 192 Kbps; CBR; 2 ch; 48 khz | P, MVO |
Аудио 2: DTS; 1536 Kbps; CBR; 6 ch; 48 khz; 16 bit | Английский |
Формат субтитров: softsub (SRT)

Скриншоты || x264 Info || MediaInfo || Notes

Notes:

Цитата:
  • Аудио дорожка №1, записана мной с онлайн кинотеатра., в дорожке что бродит по интернету: искаженный звук и большОй клиппинг +5.56dB

MediaInfo

Код:
Общее
Уникальный идентификатор                 : 201933522604326504000294109266909322601 (0x97EAFB56FA557539ABE855571C47DD69)
Полное имя                               : Неправильно.2012.P.1080p.BluRay.x264-HDWinG.mkv
Формат                                   : Matroska
Версия формата                           : Version 4 / Version 2
Размер файла                             : 8,07 Гбайт
Продолжительность                        : 1 ч. 33 м.
Общий поток                              : 12,4 Мбит/сек
Название фильма                          : profile.php?mode=viewprofile&u=22488948
Дата кодирования                         : UTC 2013-05-21 06:16:09
Программа кодирования                    : mkvmerge v6.2.0 ('Promised Land') built on Apr 28 2013 12:22:01
Библиотека кодирования                   : libebml v1.3.0 + libmatroska v1.4.0
Видео
Идентификатор                            : 1
Формат                                   : AVC
Формат/Информация                        : Advanced Video Codec
Профиль формата                          : [email protected]
Параметр CABAC формата                   : Да
Параметр ReFrames формата                : 4 кадра
Идентификатор кодека                     : V_MPEG4/ISO/AVC
Продолжительность                        : 1 ч. 33 м.
Битрейт                                  : 10,7 Мбит/сек
Ширина                                   : 1920 пикселей
Высота                                   : 1036 пикселей
Соотношение сторон                       : 1,85:1
Режим частоты кадров                     : Постоянный
Частота кадров                           : 23,976 кадра/сек
Цветовое пространство                    : YUV
Субдискретизация насыщенности            : 4:2:0
Битовая глубина                          : 8 бит
Тип развёртки                            : Прогрессивная
Бит/(Пиксели*Кадры)                      : 0.224
Размер потока                            : 6,80 Гбайт (84%)
Библиотека кодирования                   : x264 core 130 r2274+704+40 24c804d tMod+MixAQ [[email protected]:2:0 X86_64]
Настройки программы                      : cabac=1 / ref=4 / deblock=1:-3:-3 / analyse=0x3:0x113 / me=umh / subme=11 / psy=1 / fade_compensate=0.00 / psy_rd=1.05:0.00 / mixed_ref=1 / me_range=48 / chroma_me=1 / trellis=2 / 8x8dct=1 / cqm=0 / deadzone=21,11 / fast_pskip=0 / chroma_qp_offset=-2 / threads=36 / lookahead_threads=6 / sliced_threads=0 / nr=0 / decimate=0 / interlaced=0 / bluray_compat=0 / constrained_intra=0 / fgo=0 / bframes=8 / b_pyramid=2 / b_adapt=2 / b_bias=0 / direct=3 / weightb=1 / open_gop=0 / weightp=2 / keyint=240 / keyint_min=24 / scenecut=40 / intra_refresh=0 / rc=2pass / mbtree=0 / bitrate=10660 / ratetol=1.0 / qcomp=0.72 / qpmin=0 / qpmax=69 / qpstep=4 / cplxblur=20.0 / qblur=0.5 / ip_ratio=1.25 / pb_ratio=1.20 / aq=4:0.80 / aq-sensitivity=10.00 / aq-ifactor=1.00 / aq-pfactor=1.00 / aq-bfactor=1.00 / aq2=0
Язык                                     : English
Default                                  : Да
Forced                                   : Нет
Аудио #1
Идентификатор                            : 2
Формат                                   : AC-3
Формат/Информация                        : Audio Coding 3
Расширение режима                        : CM (complete main)
Параметр Endianness формата              : Big
Идентификатор кодека                     : A_AC3
Продолжительность                        : 1 ч. 33 м.
Вид битрейта                             : Постоянный
Битрейт                                  : 192 Кбит/сек
Каналы                                   : 2 канала
Расположение каналов                     : Front: L R
Частота                                  : 48,0 КГц
Битовая глубина                          : 16 бит
Метод сжатия                             : С потерями
Размер потока                            : 128 Мбайт (2%)
Заголовок                                : P, MVO [now ru]
Язык                                     : Russian
Default                                  : Да
Forced                                   : Нет
Аудио #2
Идентификатор                            : 3
Формат                                   : DTS
Формат/Информация                        : Digital Theater Systems
Режим                                    : 16
Параметр Endianness формата              : Big
Идентификатор кодека                     : A_DTS
Продолжительность                        : 1 ч. 33 м.
Вид битрейта                             : Постоянный
Битрейт                                  : 1509 Кбит/сек
Каналы                                   : 6 каналов
Расположение каналов                     : Front: L C R, Side: L R, LFE
Частота                                  : 48,0 КГц
Битовая глубина                          : 16 бит
Метод сжатия                             : С потерями
Размер потока                            : 1009 Мбайт (12%)
Язык                                     : English
Default                                  : Нет
Forced                                   : Нет
Текст #1
Идентификатор                            : 4
Формат                                   : UTF-8
Идентификатор кодека                     : S_TEXT/UTF8
Идентификатор кодека/Информация          : UTF-8 Plain Text
Язык                                     : English
Default                                  : Нет
Forced                                   : Нет
Текст #2
Идентификатор                            : 5
Формат                                   : UTF-8
Идентификатор кодека                     : S_TEXT/UTF8
Идентификатор кодека/Информация          : UTF-8 Plain Text
Заголовок                                : SDH
Язык                                     : English
Default                                  : Нет
Forced                                   : Нет
Меню
00:00:00.000                             : en:
00:12:55.107                             : en:
00:23:43.463                             : en:
00:33:06.150                             : en:
00:41:33.240                             : en:
00:54:22.092                             : en:
00:59:14.717                             : en:
01:08:40.658                             : en:
01:12:36.185                             : en:
01:15:48.126                             : en:
01:25:03.223                             : en:
01:30:44.021                             : en:

x264 Info

x264 [info]: frame I:935 Avg QP:12.27 size:231610
x264 [info]: frame P:27537 Avg QP:13.96 size: 97604
x264 [info]: frame B:106008 Avg QP:14.87 size: 43116
x264 [info]: consecutive B-frames: 1.5% 1.8% 8.6% 13.2% 21.8% 36.1% 9.5% 4.5% 3.1%
Other forum [Profile] [PM]
Display posts from previous:    
Reply to topic

The time now is: Today 11:42

All times are GMT + 3 Hours



You cannot post new topics in this forum
You cannot reply to topics in this forum
You cannot edit your posts in this forum
You cannot delete your posts in this forum
You cannot vote in polls in this forum
You cannot attach files in this forum
You cannot download files in this forum