Today is a free download without charge Download

21 и больше / 21 & Over (Джон Лукас, Скотт Мур / Jon Lucas, Scott Moore) [2013, США, комедия, BDRip 1080p] Dub

Reply to topic
 
Author
Message

Omen ®

Longevity: 8 years 5 months

Posts: 181087

Торрент-статистика

Post 22-May-2013 13:20

[Quote]

-21 и больше / 21 & Over
Страна: США
Жанр: комедия
Год выпуска: 2013
Продолжительность: 01:33:05-Перевод: Профессиональный (дублированный)
Cубтитры: нет
Оригинальная аудиодорожка: нет-Режиссер: Джон Лукас, Скотт Мур / Jon Lucas, Scott Moore
В ролях: Майлз Теллер, Скайлар Эстин, Джастин Чон, Сара Райт, Джонатан Кельтц, Франсуа Чау, Расселл Ходжкинсон, Дэниэл Буко, Расселл Меркадо, Джози Лорен, ...-Описание: Двое друзей подбивают третьего отметить его 21-ый день рождения прямо накануне важного экзамена в медицинский колледж. Никто не замечает, как одна кружка пива превращается в море выпивки, а вечеринка — в бурное и незабываемое приключение с музыкой и девчонками. И где же они окажутся утром?-Сценаристы: Джон Лукас, Скотт Мур
Продюсеры: Дэвид Хоберман, Райан Кэвэна, Тодд Либерман
Оператор: Терри Стэйси-Релиз:
Сэмпл: http://multi-up.com/867936
Тип релиза: BDRip
Контейнер: MKV
Видео: MPEG-4 AVC, 1920x1080, 10.5 Mbps, 23.976 fps
Аудио: DTS, 6 channels, 48.0 KHz, 1509 Kbps

MediaInfo

General
Unique ID : 208250929543520513803249026208303671577 (0x9CABAB8CAF62B4E3945ECEC2EAFFE919)
Complete name : C:\Users\Y12\Downloads\21.and.Over.BDRip.1080p.mkv
Format : Matroska
Format version : Version 4 / Version 2
File size : 7.81 GiB
Duration : 1h 33mn
Overall bit rate : 12.0 Mbps
Movie name : 21 and Over
Encoded date : UTC 2013-05-22 06:43:21
Writing application : mkvmerge v6.2.0 ('Promised Land') built on Apr 28 2013 12:22:01
Writing library : libebml v1.3.0 + libmatroska v1.4.0
Video
ID : 1
Format : AVC
Format/Info : Advanced Video Codec
Format profile : [email protected]
Format settings, CABAC : Yes
Format settings, ReFrames : 4 frames
Codec ID : V_MPEG4/ISO/AVC
Duration : 1h 33mn
Bit rate : 10.5 Mbps
Width : 1 920 pixels
Height : 1 080 pixels
Display aspect ratio : 16:9
Frame rate mode : Constant
Frame rate : 23.976 fps
Color space : YUV
Chroma subsampling : 4:2:0
Bit depth : 8 bits
Scan type : Progressive
Bits/(Pixel*Frame) : 0.211
Stream size : 6.67 GiB (85%)
Writing library : x264 core 132 r2310 76a5c3a
Encoding settings : cabac=1 / ref=4 / deblock=1:-3:-3 / analyse=0x3:0x113 / me=umh / subme=10 / psy=1 / psy_rd=1.00:0.00 / mixed_ref=1 / me_range=24 / chroma_me=1 / trellis=2 / 8x8dct=1 / cqm=0 / deadzone=21,11 / fast_pskip=1 / chroma_qp_offset=-2 / threads=6 / lookahead_threads=1 / sliced_threads=0 / nr=0 / decimate=1 / interlaced=0 / bluray_compat=0 / constrained_intra=0 / bframes=5 / b_pyramid=2 / b_adapt=2 / b_bias=0 / direct=2 / weightb=0 / open_gop=0 / weightp=2 / keyint=240 / keyint_min=23 / scenecut=40 / intra_refresh=0 / rc_lookahead=40 / rc=2pass / mbtree=1 / bitrate=10500 / ratetol=1.0 / qcomp=0.60 / qpmin=0 / qpmax=69 / qpstep=4 / cplxblur=20.0 / qblur=0.5 / vbv_maxrate=62500 / vbv_bufsize=78125 / nal_hrd=none / ip_ratio=1.40 / aq=1:1.00 / zones=126733,133919,q=40
Language : English
Default : Yes
Forced : No
Audio
ID : 2
Format : DTS
Format/Info : Digital Theater Systems
Mode : 16
Format settings, Endianness : Big
Codec ID : A_DTS
Duration : 1h 33mn
Bit rate mode : Constant
Bit rate : 1 509 Kbps
Channel(s) : 6 channels
Channel positions : Front: L C R, Side: L R, LFE
Sampling rate : 48.0 KHz
Bit depth : 24 bits
Compression mode : Lossy
Stream size : 1 005 MiB (13%)
Title : Dub
Language : Russian
Default : Yes
Forced : No
Menu
00:00:00.000 : :Chapter 01
00:05:54.228 : :Chapter 02
00:14:47.469 : :Chapter 03
00:21:47.431 : :Chapter 04
00:29:08.997 : :Chapter 05
00:37:08.976 : :Chapter 06
00:44:17.154 : :Chapter 07
00:51:19.242 : :Chapter 08
01:00:12.734 : :Chapter 09
01:10:07.077 : :Chapter 10
01:16:20.993 : :Chapter 11
01:26:53.917 : :Chapter 12

Скриншоты

Other forum [Profile] [PM]
Display posts from previous:    
Reply to topic

The time now is: Today 13:37

All times are GMT + 3 Hours



You cannot post new topics in this forum
You cannot reply to topics in this forum
You cannot edit your posts in this forum
You cannot delete your posts in this forum
You cannot vote in polls in this forum
You cannot attach files in this forum
You cannot download files in this forum