Today is a free download without charge Download

И в горе, и в радости / Брачные узы / Семейные узы / Married to It (Артур Хиллер / Arthur Hiller) [1991, США, Комедия, драма, HDTV 1080i] DVO (НТВ+) + AVO (Алексей Михалев)

Reply to topic
 
Author
Message

Omen ®

Longevity: 8 years 5 months

Posts: 181087

Торрент-статистика

Post 22-May-2013 13:20

[Quote]

И в горе, и в радости / Брачные узы / Семейные узы / Married to It
Страна: США
Студия: ORION Pictures
Жанр: Комедия, драма
Год выпуска: 1991
Продолжительность: 01:47:09
Перевод 1: Профессиональный (двухголосый закадровый) НТВ+
Перевод 2: Авторский (одноголосый закадровый) Алексей Михалев
Cубтитры: нет
Оригинальная аудиодорожка: нет
Режиссер: Артур Хиллер / Arthur Hiller
В ролях: Бо Бриджес, Стоккард Ченнинг, Мэри Стюарт Мастерсон, Роберт Шон Леонард, Сибилл Шепард, Рон Сильвер
Описание: Три совершенно разные супружеские пары объединяют свои усилия для организации детского школьного праздника. Между ними завязывается дружба, которой не смогут помешать ни разводы, ни суды, ни что-то другое...

Тип релиза: HDTV 1080i
Контейнер: MKV
Видео: AVC 1920x1080 (16:9) 25.0fps Bit rate 6115Kbps
Аудио 1: AC3 48000Hz 2ch 192 Kbps DVO rus
Аудио 2: AC3 48000Hz 2ch 192 Kbps AVO rus

MediaInfo

General
Complete name : E:\torrent\И в горе, и в радости.mkv
Format : Matroska
File size : 4.96 GiB
Duration : 1h 47mn
Overall bit rate : 6 631 Kbps
Encoded date : UTC 2013-05-22 04:47:58
Writing application : mkvmerge v5.7.0 ('The Whirlwind') built on Jul 8 2012 20:08:51
Writing library : libebml v1.2.3 + libmatroska v1.3.0
Video
ID : 1
Format : AVC
Format/Info : Advanced Video Codec
Format profile : [email protected]
Format settings, CABAC : Yes
Format settings, ReFrames : 3 frames
Format settings, GOP : M=1, N=64
Muxing mode : Container [email protected]
Codec ID : V_MPEG4/ISO/AVC
Duration : 1h 47mn
Bit rate : 6 115 Kbps
Width : 1 920 pixels
Height : 1 080 pixels
Display aspect ratio : 16:9
Frame rate : 50.000 fps
Original frame rate : 25.000 fps
Standard : Component
Color space : YUV
Chroma subsampling : 4:2:0
Bit depth : 8 bits
Scan type : Interlaced
Scan order : Top Field First
Bits/(Pixel*Frame) : 0.059
Stream size : 4.58 GiB (92%)
Title : И в горе, и в радости_HDTV_1080i
Color primaries : BT.709-5, BT.1361, IEC 61966-2-4, SMPTE RP177
Transfer characteristics : BT.709-5, BT.1361
Matrix coefficients : BT.709-5, BT.1361, IEC 61966-2-4 709, SMPTE RP177
Audio #1
ID : 2
Format : AC-3
Format/Info : Audio Coding 3
Mode extension : CM (complete main)
Codec ID : A_AC3
Duration : 1h 47mn
Bit rate mode : Constant
Bit rate : 192 Kbps
Channel(s) : 2 channels
Channel positions : Front: L R
Sampling rate : 48.0 KHz
Bit depth : 16 bits
Stream size : 147 MiB (3%)
Title : И в горе, и в радости_AC3_DVO
Audio #2
ID : 3
Format : AC-3
Format/Info : Audio Coding 3
Mode extension : CM (complete main)
Codec ID : A_AC3
Duration : 1h 47mn
Bit rate mode : Constant
Bit rate : 192 Kbps
Channel(s) : 2 channels
Channel positions : Front: L R
Sampling rate : 48.0 KHz
Bit depth : 16 bits
Stream size : 147 MiB (3%)
Title : И в горе, и в радости_AC3_VO

Скриншоты меню

Скриншоты

Other forum [Profile] [PM]
Display posts from previous:    
Reply to topic

The time now is: Today 22:10

All times are GMT + 3 Hours



You cannot post new topics in this forum
You cannot reply to topics in this forum
You cannot edit your posts in this forum
You cannot delete your posts in this forum
You cannot vote in polls in this forum
You cannot attach files in this forum
You cannot download files in this forum