Today is a free download without charge Download

Avril Lavigne / What The Hell 3D Version (Marcus Raboy) [2011, Pop punk, pop rock, HDTVrip] Half SideBySide / Горизонтальная анаморфная стереопара

Reply to topic
 
Author
Message

Omen ®

Longevity: 8 years 8 months

Posts: 181087

Торрент-статистика

Post 22-May-2013 09:16

[Quote]

Avril Lavigne / What The Hell 3D Version
Год выпуска: 2011
Страна: USA
Жанр: Pop punk, pop rock
Продолжительность: 03:41
Перевод: Не требуется
Русские субтитры: нет
Режиссер на английском: Marcus Raboy
Описание: 3D-версия клипа Avril Lavigne - What The Hell.
Качество: HDTV
Контейнер: AVI
Формат 3D: Half SideBySide / Горизонтальная анаморфная стереопара
Видео кодек: Divx
Аудио кодек: LPCM
Видео: 1280x720 16:9 10.1 Mbps 50.000 fps
Аудио: 2 channels 1536 Kbps 48.0 KHz

MediaInfo

General
Complete name : D:\Avril Lavigne - What The Hell [3D].avi
Format : AVI
Format/Info : Audio Video Interleave
File size : 308 MiB
Duration : 3mn 41s
Overall bit rate : 11.6 Mbps
Writing application : VirtualDubMod 1.5.10.3 | www.virtualdub-fr.org || (build 2550/release)
Writing library : VirtualDubMod build 2550/release
Video
ID : 0
Format : MPEG-4 Visual
Format profile : Advanced [email protected]
Format settings, BVOP : 2
Format settings, QPel : No
Format settings, GMC : No warppoints
Format settings, Matrix : Default (H.263)
Muxing mode : Packed bitstream
Codec ID : DX50
Codec ID/Hint : DivX 5
Duration : 3mn 41s
Bit rate : 10.1 Mbps
Width : 1 280 pixels
Height : 720 pixels
Display aspect ratio : 16:9
Frame rate : 50.000 fps
Color space : YUV
Chroma subsampling : 4:2:0
Bit depth : 8 bits
Scan type : Progressive
Compression mode : Lossy
Bits/(Pixel*Frame) : 0.219
Stream size : 267 MiB (87%)
Writing library : XviD 1.2.1 (UTC 2008-12-04)
Audio
ID : 1
Format : PCM
Format settings, Endianness : Little
Format settings, Sign : Signed
Codec ID : 1
Codec ID/Hint : Microsoft
Duration : 3mn 41s
Bit rate mode : Constant
Bit rate : 1 536 Kbps
Channel(s) : 2 channels
Sampling rate : 48.0 KHz
Bit depth : 16 bits
Stream size : 40.6 MiB (13%)
Interleave, duration : 20 ms (1.00 video frame)
Interleave, preload duration : 500 ms

Скриншоты



Other forum [Profile] [PM]
Display posts from previous:    
Reply to topic

The time now is: Today 04:51

All times are GMT + 3 Hours



You cannot post new topics in this forum
You cannot reply to topics in this forum
You cannot edit your posts in this forum
You cannot delete your posts in this forum
You cannot vote in polls in this forum
You cannot attach files in this forum
You cannot download files in this forum