Today is a free download without charge Download

(Drum and Bass) Calibre - Spill - 2013, FLAC (tracks), lossless

Reply to topic
 
Author
Message

p2000s ®

Gender:

Longevity: 6 years 2 months

Posts: 89

Location: деактивирован, причина: последнее посещение 2017-11-29. darkos_bot 14.06.2019г

Торрент-статистика

Post 22-May-2013 08:09

[Quote]

Calibre - Spill- Label: Signature Records
Catalog #: SIGCD009
Страна: UK
Жанр: Drum and Bass
Год выпуска: 2013
Формат: FLAC (tracks)
Битрейт аудио: lossless
Продолжительность: 01:16:34
Трэклист:
01. Dema Beats [05:33]
02. Running [05:59]
03. Think On [06:42]
04. Keep Control [05:44]
05. Close To Me [05:58]
06. Cully Bridge [05:56]
07. Simple Things [05:39]
08. Start Again Feat. Chimpo [05:07]
09. Do Not Turn On [05:49]
10. Wilderness [05:34]
11. Key Flix [05:38]
12. Paragov [05:39]
13. Sick Of It All [07:10]
-

Log X Lossless Decoder:

X Lossless Decoder version 20130407 (143.0)
XLD extraction logfile from 2013-05-17 20:14:26 +0100
Calibre / Spill
Used drive : MATSHITA DVD-R UJ-898 (revision HA07)
Media type : Pressed CD
Ripper mode : CDParanoia III 10.2
Disable audio cache : OK for the drive with a cache less than 2750KiB
Make use of C2 pointers : NO
Read offset correction : 102
Max retry count : 20
Gap status : Analyzed, Appended
TOC of the extracted CD
Track | Start | Length | Start sector | End sector
---------------------------------------------------------
1 | 00:00:00 | 05:33:72 | 0 | 25046
2 | 05:33:72 | 05:59:27 | 25047 | 51998
3 | 11:33:24 | 06:42:54 | 51999 | 82202
4 | 18:16:03 | 05:44:12 | 82203 | 108014
5 | 24:00:15 | 05:58:54 | 108015 | 134918
6 | 29:58:69 | 05:56:24 | 134919 | 161642
7 | 35:55:18 | 05:39:03 | 161643 | 187070
8 | 41:34:21 | 05:07:63 | 187071 | 210158
9 | 46:42:09 | 05:49:57 | 210159 | 236390
10 | 52:31:66 | 05:34:42 | 236391 | 261482
11 | 58:06:33 | 05:38:06 | 261483 | 286838
12 | 63:44:39 | 05:39:03 | 286839 | 312266
13 | 69:23:42 | 07:10:44 | 312267 | 344560
AccurateRip Summary
Disc not found in AccurateRip DB.
All Tracks
Album gain : -7.34 dB
Peak : 0.988617
Statistics
Read error : 0
Skipped (treated as error) : 0
Edge jitter error (maybe fixed) : 0
Atom jitter error (maybe fixed) : 0
Drift error (maybe fixed) : 0
Dropped bytes error (maybe fixed) : 0
Duplicated bytes error (maybe fixed) : 0
Track 01
Filename : /Users/callumm89/Music/Rips/CD/Calibre - Spill [SIGCD009] [FLAC CD] 2013/01 Calibre - Dema Beats.flac
Pre-gap length : 00:02:00
Track gain : -7.09 dB
Peak : 0.988617
CRC32 hash (test run) : 6E01DC3F
CRC32 hash : 6E01DC3F
CRC32 hash (skip zero) : 4446D636
AccurateRip v1 signature : 9D4E7E1B
AccurateRip v2 signature : C804E24E
->Track not present in AccurateRip database.
Statistics
Read error : 0
Skipped (treated as error) : 0
Edge jitter error (maybe fixed) : 0
Atom jitter error (maybe fixed) : 0
Drift error (maybe fixed) : 0
Dropped bytes error (maybe fixed) : 0
Duplicated bytes error (maybe fixed) : 0
Inconsistency in error sectors : 0
Track 02
Filename : /Users/callumm89/Music/Rips/CD/Calibre - Spill [SIGCD009] [FLAC CD] 2013/02 Calibre - Running.flac
Pre-gap length : 00:01:39
Track gain : -8.35 dB
Peak : 0.988586
CRC32 hash (test run) : 08C07335
CRC32 hash : 08C07335
CRC32 hash (skip zero) : 58BA33E0
AccurateRip v1 signature : 1973EF62
AccurateRip v2 signature : 327ED9D4
->Track not present in AccurateRip database.
Statistics
Read error : 0
Skipped (treated as error) : 0
Edge jitter error (maybe fixed) : 0
Atom jitter error (maybe fixed) : 0
Drift error (maybe fixed) : 0
Dropped bytes error (maybe fixed) : 0
Duplicated bytes error (maybe fixed) : 0
Inconsistency in error sectors : 0
Track 03
Filename : /Users/callumm89/Music/Rips/CD/Calibre - Spill [SIGCD009] [FLAC CD] 2013/03 Calibre - Think On.flac
Pre-gap length : 00:01:25
Track gain : -6.73 dB
Peak : 0.988586
CRC32 hash (test run) : AC06B0FB
CRC32 hash : AC06B0FB
CRC32 hash (skip zero) : B70AF806
AccurateRip v1 signature : 107F4403
AccurateRip v2 signature : 3F2C6495
->Track not present in AccurateRip database.
Statistics
Read error : 0
Skipped (treated as error) : 0
Edge jitter error (maybe fixed) : 0
Atom jitter error (maybe fixed) : 0
Drift error (maybe fixed) : 0
Dropped bytes error (maybe fixed) : 0
Duplicated bytes error (maybe fixed) : 0
Inconsistency in error sectors : 0
Track 04
Filename : /Users/callumm89/Music/Rips/CD/Calibre - Spill [SIGCD009] [FLAC CD] 2013/04 Calibre - Keep Control.flac
Pre-gap length : 00:01:28
Track gain : -7.65 dB
Peak : 0.988586
CRC32 hash (test run) : E1886F4B
CRC32 hash : E1886F4B
CRC32 hash (skip zero) : 3DA5CC23
AccurateRip v1 signature : BE20C376
AccurateRip v2 signature : CC9867ED
->Track not present in AccurateRip database.
Statistics
Read error : 0
Skipped (treated as error) : 0
Edge jitter error (maybe fixed) : 0
Atom jitter error (maybe fixed) : 0
Drift error (maybe fixed) : 0
Dropped bytes error (maybe fixed) : 0
Duplicated bytes error (maybe fixed) : 0
Inconsistency in error sectors : 0
Track 05
Filename : /Users/callumm89/Music/Rips/CD/Calibre - Spill [SIGCD009] [FLAC CD] 2013/05 Calibre - Close To Me.flac
Pre-gap length : 00:00:71
Track gain : -8.01 dB
Peak : 0.988586
CRC32 hash (test run) : C00B4084
CRC32 hash : C00B4084
CRC32 hash (skip zero) : BDA79609
AccurateRip v1 signature : 2D9D360D
AccurateRip v2 signature : 7FAA6AB5
->Track not present in AccurateRip database.
Statistics
Read error : 0
Skipped (treated as error) : 0
Edge jitter error (maybe fixed) : 0
Atom jitter error (maybe fixed) : 0
Drift error (maybe fixed) : 0
Dropped bytes error (maybe fixed) : 0
Duplicated bytes error (maybe fixed) : 0
Inconsistency in error sectors : 0
Track 06
Filename : /Users/callumm89/Music/Rips/CD/Calibre - Spill [SIGCD009] [FLAC CD] 2013/06 Calibre - Cully Bridge.flac
Pre-gap length : 00:00:69
Track gain : -8.59 dB
Peak : 0.988586
CRC32 hash (test run) : 1BE143DD
CRC32 hash : 1BE143DD
CRC32 hash (skip zero) : A3E009CB
AccurateRip v1 signature : 8FB7B2D6
AccurateRip v2 signature : 26294CB3
->Track not present in AccurateRip database.
Statistics
Read error : 0
Skipped (treated as error) : 0
Edge jitter error (maybe fixed) : 0
Atom jitter error (maybe fixed) : 0
Drift error (maybe fixed) : 0
Dropped bytes error (maybe fixed) : 0
Duplicated bytes error (maybe fixed) : 0
Inconsistency in error sectors : 0
Track 07
Filename : /Users/callumm89/Music/Rips/CD/Calibre - Spill [SIGCD009] [FLAC CD] 2013/07 Calibre - Simple Things.flac
Pre-gap length : 00:01:42
Track gain : -7.28 dB
Peak : 0.988556
CRC32 hash (test run) : 2FFB03E6
CRC32 hash : 2FFB03E6
CRC32 hash (skip zero) : 3AB2C32E
AccurateRip v1 signature : D9DA101B
AccurateRip v2 signature : 33DB4FCA
->Track not present in AccurateRip database.
Statistics
Read error : 0
Skipped (treated as error) : 0
Edge jitter error (maybe fixed) : 0
Atom jitter error (maybe fixed) : 0
Drift error (maybe fixed) : 0
Dropped bytes error (maybe fixed) : 0
Duplicated bytes error (maybe fixed) : 0
Inconsistency in error sectors : 0
Track 08
Filename : /Users/callumm89/Music/Rips/CD/Calibre - Spill [SIGCD009] [FLAC CD] 2013/08 Calibre - Start Again Feat. Chimpo.flac
Pre-gap length : 00:01:23
Track gain : -5.35 dB
Peak : 0.988556
CRC32 hash (test run) : F8BCCFE6
CRC32 hash : F8BCCFE6
CRC32 hash (skip zero) : 755FB70E
AccurateRip v1 signature : 78B08987
AccurateRip v2 signature : 4BE0CC27
->Track not present in AccurateRip database.
Statistics
Read error : 0
Skipped (treated as error) : 0
Edge jitter error (maybe fixed) : 0
Atom jitter error (maybe fixed) : 0
Drift error (maybe fixed) : 0
Dropped bytes error (maybe fixed) : 0
Duplicated bytes error (maybe fixed) : 0
Inconsistency in error sectors : 0
Track 09
Filename : /Users/callumm89/Music/Rips/CD/Calibre - Spill [SIGCD009] [FLAC CD] 2013/09 Calibre - Do Not Turn On.flac
Pre-gap length : 00:00:70
Track gain : -7.28 dB
Peak : 0.988586
CRC32 hash (test run) : B5FF669C
CRC32 hash : B5FF669C
CRC32 hash (skip zero) : D151D12E
AccurateRip v1 signature : 9ECA1E99
AccurateRip v2 signature : 239A1F82
->Track not present in AccurateRip database.
Statistics
Read error : 0
Skipped (treated as error) : 0
Edge jitter error (maybe fixed) : 0
Atom jitter error (maybe fixed) : 0
Drift error (maybe fixed) : 0
Dropped bytes error (maybe fixed) : 0
Duplicated bytes error (maybe fixed) : 0
Inconsistency in error sectors : 0
Track 10
Filename : /Users/callumm89/Music/Rips/CD/Calibre - Spill [SIGCD009] [FLAC CD] 2013/10 Calibre - Wilderness.flac
Pre-gap length : 00:00:13
Track gain : -6.45 dB
Peak : 0.988586
CRC32 hash (test run) : E4E4B3FE
CRC32 hash : E4E4B3FE
CRC32 hash (skip zero) : 83B714B1
AccurateRip v1 signature : 96B8C4F1
AccurateRip v2 signature : 19BC9A09
->Track not present in AccurateRip database.
Statistics
Read error : 0
Skipped (treated as error) : 0
Edge jitter error (maybe fixed) : 0
Atom jitter error (maybe fixed) : 0
Drift error (maybe fixed) : 0
Dropped bytes error (maybe fixed) : 0
Duplicated bytes error (maybe fixed) : 0
Inconsistency in error sectors : 0
Track 11
Filename : /Users/callumm89/Music/Rips/CD/Calibre - Spill [SIGCD009] [FLAC CD] 2013/11 Calibre - Key Flix.flac
Pre-gap length : 00:01:09
Track gain : -7.53 dB
Peak : 0.988556
CRC32 hash (test run) : BE7E3190
CRC32 hash : BE7E3190
CRC32 hash (skip zero) : 65179560
AccurateRip v1 signature : 6E97C707
AccurateRip v2 signature : 2C2C3EA2
->Track not present in AccurateRip database.
Statistics
Read error : 0
Skipped (treated as error) : 0
Edge jitter error (maybe fixed) : 0
Atom jitter error (maybe fixed) : 0
Drift error (maybe fixed) : 0
Dropped bytes error (maybe fixed) : 0
Duplicated bytes error (maybe fixed) : 0
Inconsistency in error sectors : 0
Track 12
Filename : /Users/callumm89/Music/Rips/CD/Calibre - Spill [SIGCD009] [FLAC CD] 2013/12 Calibre - Paragov.flac
Pre-gap length : 00:01:00
Track gain : -7.26 dB
Peak : 0.988556
CRC32 hash (test run) : 8775924D
CRC32 hash : 8775924D
CRC32 hash (skip zero) : 9E395B64
AccurateRip v1 signature : 5B81F26F
AccurateRip v2 signature : 5BD59FD0
->Track not present in AccurateRip database.
Statistics
Read error : 0
Skipped (treated as error) : 0
Edge jitter error (maybe fixed) : 0
Atom jitter error (maybe fixed) : 0
Drift error (maybe fixed) : 0
Dropped bytes error (maybe fixed) : 0
Duplicated bytes error (maybe fixed) : 0
Inconsistency in error sectors : 0
Track 13
Filename : /Users/callumm89/Music/Rips/CD/Calibre - Spill [SIGCD009] [FLAC CD] 2013/13 Calibre - Sick Of It All.flac
Pre-gap length : 00:00:64
Track gain : -6.82 dB
Peak : 0.988556
CRC32 hash (test run) : ABEDAA8D
CRC32 hash : ABEDAA8D
CRC32 hash (skip zero) : 4C1CE443
AccurateRip v1 signature : 6944DD7E
AccurateRip v2 signature : DBE298C6
->Track not present in AccurateRip database.
Statistics
Read error : 0
Skipped (treated as error) : 0
Edge jitter error (maybe fixed) : 0
Atom jitter error (maybe fixed) : 0
Drift error (maybe fixed) : 0
Dropped bytes error (maybe fixed) : 0
Duplicated bytes error (maybe fixed) : 0
Inconsistency in error sectors : 0
No errors occurred
End of status report

Log auCDtect:

-----------------------
DON'T MODIFY THIS FILE
-----------------------
PERFORMER: auCDtect Task Manager, ver. 1.5.1RC4 build 1.5.1.5
Copyright (c) 2008-2010 y-soft. All rights reserved
http://y-soft.org
ANALYZER: auCDtect: CD records authenticity detector, version 0.8.2
Copyright (c) 2004 Oleg Berngardt. All rights reserved.
Copyright (c) 2004 Alexander Djourik. All rights reserved.
FILE: 01 Calibre - Dema Beats.flac
Size: 39322024 Hash: CEEF508653BCBD8AF3968AA4F49C2690 Accuracy: -m0
Conclusion: CDDA 100%
Signature: F3C92DD8F7354144408D491FEBABEED6227172B3
FILE: 02 Calibre - Running.flac
Size: 41732524 Hash: 595361B43168A720385DECC26FEB90BE Accuracy: -m0
Conclusion: CDDA 100%
Signature: F626AB0E79699EBD3D8186550FC32DFD150BC2A7
FILE: 03 Calibre - Think On.flac
Size: 47435467 Hash: 5B960FD96F7E7183A8973DD5528EE4B6 Accuracy: -m0
Conclusion: CDDA 100%
Signature: AB098F3C2FBDB4DC0236A100B61F4DF2C6D823BC
FILE: 04 Calibre - Keep Control.flac
Size: 43292952 Hash: 2BBAEE7A58EA06E5CF80C310D349BEF6 Accuracy: -m0
Conclusion: CDDA 100%
Signature: F4BFA3E534B2502363C4672D41C81BAFE6677A76
FILE: 05 Calibre - Close To Me.flac
Size: 42504873 Hash: AD4ABA0E30E94B34F4425AFB14612121 Accuracy: -m0
Conclusion: CDDA 100%
Signature: D52B72894EFD80433D5D61CA54FF6D02EC748852
FILE: 06 Calibre - Cully Bridge.flac
Size: 39495543 Hash: D683EC79EB0CF5846A6FC20D54010A98 Accuracy: -m0
Conclusion: CDDA 99%
Signature: 66F0D71B4C8C4618250CCA27103724CA7A22EE4F
FILE: 07 Calibre - Simple Things.flac
Size: 40981588 Hash: 11C48F399F41E44491B1A32273D380C8 Accuracy: -m0
Conclusion: CDDA 99%
Signature: 20E8A83B21D55CFCE4AB363F4814E8F5D11B8B33
FILE: 08 Calibre - Start Again Feat. Chimpo.flac
Size: 31662127 Hash: E23ECB60E3FD1840476C1B9F1A2F3FCB Accuracy: -m0
Conclusion: CDDA 99%
Signature: E25655515DBC6A22880758141CB49E62832459FD
FILE: 09 Calibre - Do Not Turn On.flac
Size: 36894535 Hash: F093A02F461D8B89ECFF84FC773476C0 Accuracy: -m0
Conclusion: CDDA 100%
Signature: D730B920BDA8581611A65607564EC631149514AB
FILE: 10 Calibre - Wilderness.flac
Size: 35714682 Hash: 2EB80812B4E8F72DBF4BF9EDDC9FC95A Accuracy: -m0
Conclusion: CDDA 100%
Signature: DA057FA2B643A14815D53705FB71F44FEF1DF68A
FILE: 11 Calibre - Key Flix.flac
Size: 40301600 Hash: 0B693C665CEDF8616657723351E54781 Accuracy: -m0
Conclusion: CDDA 100%
Signature: 7B48BAD09EC2EB9B2A40E382C676D15180BA3A4E
FILE: 12 Calibre - Paragov.flac
Size: 39458208 Hash: 4C45AEE9ED158570404C0DC738742F45 Accuracy: -m0
Conclusion: CDDA 100%
Signature: 505E56CEFC5B3BB40C93A269F4F41BD7E468CF52
FILE: 13 Calibre - Sick Of It All.flac
Size: 52639174 Hash: AA1733678D906CA6AE593E7149697022 Accuracy: -m0
Conclusion: CDDA 100%
Signature: 12442FAE8964E76FC56CD8D5B71AA31207EE0857
Время раздачи: 24/7
Other forum [Profile] [PM]
Display posts from previous:    
Reply to topic

The time now is: Today 23:15

All times are GMT + 3 Hours



You cannot post new topics in this forum
You cannot reply to topics in this forum
You cannot edit your posts in this forum
You cannot delete your posts in this forum
You cannot vote in polls in this forum
You cannot attach files in this forum
You cannot download files in this forum