Today is a free download without charge Download

Линкольн / Lincoln (Стивен Спилберг / Steven Spielberg) [2012, США, драма, военный, биография, история, BDRip 1080p] Dub + MVO [Baibako] + MVO [Интересная идея] + Original (Eng) + Sub (Rus, Eng)

Reply to topic
 
Author
Message

Omen ®

Longevity: 8 years 5 months

Posts: 181087

Торрент-статистика

Post 22-May-2013 05:15

[Quote]

Линкольн / Lincoln
Страна: США
Студия: DreamWorks Pictures, Twentieth Century Fox Film Corporation, Reliance Entertainment
Жанр: драма, военный, биография, история
Год выпуска: 2012
Продолжительность: 02:29:57
Перевод 1: Профессиональный (дублированный) [Blu-ray CEE]
Перевод 2: Профессиональный (многоголосый закадровый) [Baibako]
Перевод 3: Профессиональный (многоголосый закадровый) [Интересная идея] украинский
Оригинальная аудиодорожка: английская
Cубтитры: русские (Forced, Full), английские (Full, SDH)
Режиссер: Стивен Спилберг / Steven Spielberg
В ролях: Дэниэл Дэй-Льюис, Салли Филд, Дэвид Стрэтэйрн, Джозеф Гордон-Левитт, Джеймс Спэйдер, Хэл Холбрук, Томми Ли Джонс, Джон Хоукс, Джеки Эрл Хейли, Брюс МакГилл, Тим Блейк Нельсон, Джозеф Кросс, Джаред Харрис, Ли Пейс, Питер МакРобби, Гулливер МакГрат, Глория Рубен, Джереми Стронг, Майкл Стулбарг, Борис МакГайвер, Дэвид Костабайл, Стивен Спинелла, Уолтон Гоггинс, Дэвид Уоршофски, Колман Доминго, Дэвид Ойелоуо, Лукас Хаас, Дэйн ДеХаан, Карлос Томпсон, Билл Кэмп, Элизабет Марвел, Байрон Дженнингс, Джули Уайт
Описание: Биография американского президента по скандальной книге Орис Кернс Гудвин "Я жила с Авраамом Линкольном". Президент Линкольн вынужден преодолевать сильное сопротивление и решительное противодействие своих многочисленных противников, но именно в самый драматический момент своей жизни ему удается достичь двух исторически важных целей: завершения Гражданской войны и внесения в Конституцию 13-й поправки.

Релиз: fanatus
Качество видео: BDRip 1080p
Исходник: Blu-ray (US)
Контейнер: MKV
Видео: MPEG-4 AVC, 12000 kbps , 1920x800 (2.40:1), 23.976 fps, 0.326 bit/pixel
Аудио 1: русский (DTS, 6 ch, 48 kHz, 768 kbps) Dub Blu-ray CEE
Аудио 2: русский (DTS, 6 ch, 48 kHz, 1510 kbps) MVO (Baibako)
Аудио 3: украинский (DTS, 6 ch, 48 kHz, 1510 kbps) MVO (Interesnaja ideja)
Аудио 4: английский (DTS, 6 ch, 48 kHz, 1510 kbps) Original
Формат субтитров: softsub (SRT)
Главы: есть

MediaInfo

General
General
Unique ID : 220558720729071068305660872973398460427 (0xA5EE10816B692B419DDE00C9A4B6480B)
Complete name : E:\Linkoln.2012.x264.BDRip.1080p.fanatus.mkv
Format : Matroska
Format version : Version 2
File size : 18.1 GiB
Duration : 2h 29mn
Overall bit rate : 17.3 Mbps
Movie name : Lincoln (2012) - fanatus
Encoded date : UTC 2013-05-21 05:16:52
Writing application : mkvmerge v3.4.0 ('Rapunzel') сборка от May 15 2010 09:38:20
Writing library : libebml v0.8.0 + libmatroska v0.9.0
Video
ID : 1
Format : AVC
Format/Info : Advanced Video Codec
Format profile : [email protected]
Format settings, CABAC : Yes
Format settings, ReFrames : 5 frames
Codec ID : V_MPEG4/ISO/AVC
Duration : 2h 29mn
Bit rate : 12.0 Mbps
Width : 1 920 pixels
Height : 800 pixels
Display aspect ratio : 2.40:1
Frame rate : 23.976 fps
Color space : YUV
Chroma subsampling : 4:2:0
Bit depth : 8 bits
Scan type : Progressive
Bits/(Pixel*Frame) : 0.326
Stream size : 12.2 GiB (67%)
Title : Lincoln (2012)
Writing library : x264 core 132 r2323+704+51 d571b1c tMod [[email protected] X86]
Encoding settings : cabac=1 / ref=5 / deblock=1:-3:-3 / analyse=0x3:0x113 / me=tesa / subme=11 / psy=1 / fade_compensate=0.00 / psy_rd=1.10:0.20 / mixed_ref=1 / me_range=48 / chroma_me=1 / trellis=2 / 8x8dct=1 / cqm=0 / deadzone=21,11 / fast_pskip=0 / chroma_qp_offset=-3 / threads=16 / lookahead_threads=2 / sliced_threads=0 / nr=0 / decimate=0 / interlaced=0 / bluray_compat=0 / constrained_intra=0 / fgo=0 / bframes=8 / b_pyramid=2 / b_adapt=2 / b_bias=0 / direct=3 / weightb=1 / open_gop=0 / weightp=2 / keyint=240 / keyint_min=23 / scenecut=40 / intra_refresh=0 / rc_lookahead=240 / rc=2pass / mbtree=1 / bitrate=12000 / ratetol=1.0 / qcomp=0.75 / qpmin=0 / qpmax=69 / qpstep=4 / cplxblur=20.0 / qblur=0.5 / vbv_maxrate=50000 / vbv_bufsize=62500 / nal_hrd=none / ip_ratio=1.20 / aq=4:0.70 / aq-sensitivity=10.00 / aq-factor=1.00:1.00:1.00 / aq2=0 / aq3=0
Language : English
Default : Yes
Forced : No
Audio #1
ID : 2
Format : DTS
Format/Info : Digital Theater Systems
Codec ID : A_DTS
Duration : 2h 29mn
Bit rate mode : Constant
Bit rate : 755 Kbps
Channel(s) : 6 channels
Channel positions : Front: L C R, Side: L R, LFE
Sampling rate : 48.0 KHz
Bit depth : 24 bits
Compression mode : Lossy
Stream size : 809 MiB (4%)
Title : Dub
Language : Russian
Default : Yes
Forced : No
Audio #2
ID : 3
Format : DTS
Format/Info : Digital Theater Systems
Codec ID : A_DTS
Duration : 2h 29mn
Bit rate mode : Constant
Bit rate : 1 510 Kbps
Channel(s) : 6 channels
Channel positions : Front: L C R, Side: L R, LFE
Sampling rate : 48.0 KHz
Bit depth : 24 bits
Compression mode : Lossy
Stream size : 1.58 GiB (9%)
Title : MVO (Baibako)
Language : Russian
Default : No
Forced : No
Audio #3
ID : 4
Format : DTS
Format/Info : Digital Theater Systems
Codec ID : A_DTS
Duration : 2h 29mn
Bit rate mode : Constant
Bit rate : 1 510 Kbps
Channel(s) : 6 channels
Channel positions : Front: L C R, Side: L R, LFE
Sampling rate : 48.0 KHz
Bit depth : 24 bits
Compression mode : Lossy
Stream size : 1.58 GiB (9%)
Title : MVO (Interesnaja ideja)
Language : Ukrainian
Default : No
Forced : No
Audio #4
ID : 5
Format : DTS
Format/Info : Digital Theater Systems
Codec ID : A_DTS
Duration : 2h 29mn
Bit rate mode : Constant
Bit rate : 1 510 Kbps
Channel(s) : 6 channels
Channel positions : Front: L C R, Side: L R, LFE
Sampling rate : 48.0 KHz
Bit depth : 24 bits
Compression mode : Lossy
Stream size : 1.58 GiB (9%)
Title : Original
Language : English
Default : No
Forced : No
Text #1
ID : 6
Format : UTF-8
Codec ID : S_TEXT/UTF8
Codec ID/Info : UTF-8 Plain Text
Title : Forced
Language : Russian
Default : Yes
Forced : Yes
Text #2
ID : 7
Format : UTF-8
Codec ID : S_TEXT/UTF8
Codec ID/Info : UTF-8 Plain Text
Title : Full
Language : Russian
Default : No
Forced : No
Text #3
ID : 8
Format : UTF-8
Codec ID : S_TEXT/UTF8
Codec ID/Info : UTF-8 Plain Text
Title : Full
Language : English
Default : No
Forced : No
Text #4
ID : 9
Format : UTF-8
Codec ID : S_TEXT/UTF8
Codec ID/Info : UTF-8 Plain Text
Title : SDH
Language : English
Default : No
Forced : No
Menu
00:00:00.000 : en:Chapter 01
00:06:11.246 : en:Chapter 02
00:13:57.920 : en:Chapter 03
00:23:16.604 : en:Chapter 04
00:35:13.570 : en:Chapter 05
00:40:31.929 : en:Chapter 06
00:45:53.793 : en:Chapter 07
00:52:56.840 : en:Chapter 08
00:59:45.874 : en:Chapter 09
01:08:25.977 : en:Chapter 10
01:18:55.939 : en:Chapter 11
01:24:30.607 : en:Chapter 12
01:35:41.486 : en:Chapter 13
01:39:58.868 : en:Chapter 14
01:46:40.769 : en:Chapter 15
01:52:54.184 : en:Chapter 16
02:02:51.030 : en:Chapter 17
02:09:32.263 : en:Chapter 18
02:15:42.718 : en:Chapter 19
02:21:23.308 : en:Chapter 20

x264 [info]

x264 [info]: 1920x800p 1:1 @ 24000/1001 fps (cfr)
x264 [info]: frame I:1294 Avg QP:15.63 size:210723
x264 [info]: frame P:40542 Avg QP:17.18 size: 95004
x264 [info]: frame B:173878 Avg QP:18.59 size: 53875
x264 [info]: consecutive B-frames: 0.9% 3.4% 4.4% 6.9% 11.6% 49.8% 10.2% 6.3% 6.5%
x264 [info]: mb I I16..4: 34.0% 50.2% 15.7%
x264 [info]: mb P I16..4: 1.8% 10.5% 1.9% P16..4: 26.6% 33.8% 14.4% 0.0% 0.0% skip:10.9%
x264 [info]: mb B I16..4: 1.2% 2.1% 0.3% B16..8: 35.8% 20.6% 3.7% direct:10.8% skip:25.5% L0:42.7% L1:38.5% BI:18.9%
x264 [info]: 8x8 transform intra:65.0% inter:37.5%
x264 [info]: direct mvs spatial:98.8% temporal:1.2%
x264 [info]: coded y,uvDC,uvAC intra: 96.5% 78.5% 61.8% inter: 38.6% 29.5% 8.7%
x264 [info]: i16 v,h,dc,p: 9% 4% 48% 39%
x264 [info]: i8 v,h,dc,ddl,ddr,vr,hd,vl,hu: 11% 9% 16% 9% 11% 10% 10% 11% 13%
x264 [info]: i4 v,h,dc,ddl,ddr,vr,hd,vl,hu: 8% 8% 11% 9% 14% 11% 13% 11% 14%
x264 [info]: i8c dc,h,v,p: 48% 23% 17% 12%
x264 [info]: Weighted P-Frames: Y:3.0% UV:0.9%
x264 [info]: ref P L0: 46.6% 5.7% 25.8% 10.7% 10.6% 0.5% 0.0%
x264 [info]: ref B L0: 70.4% 21.4% 6.7% 1.5%
x264 [info]: ref B L1: 89.2% 10.8%
x264 [info]: kb/s:11996.80
x264 [info]: encoded 215714 frames, 1.125 fps, 11996.80 kb/s, 12867 MB

Скриншот c названием фильма

Скриншоты

Other forum [Profile] [PM]
Display posts from previous:    
Reply to topic

The time now is: Today 10:17

All times are GMT + 3 Hours



You cannot post new topics in this forum
You cannot reply to topics in this forum
You cannot edit your posts in this forum
You cannot delete your posts in this forum
You cannot vote in polls in this forum
You cannot attach files in this forum
You cannot download files in this forum