Today is a free download without charge Download

Discovery: Аномалии тела. Серия №6 / Body Bizarre (2013) WEBRip [H.264]

Reply to topic
 
Author
Message

UndegraundMen ®

Longevity: 7 years 7 months

Posts: 25145

Торрент-статистика

Post 22-May-2013 04:50

[Quote]

Discovery: Аномалии тела. Серия №6 / Body Bizarre (2013) WEBRip [H.264]- Режиссер / Телекомпания: Discovery
Русское название: Аномалии тела
Оригинальное название: Body Bizarre
Год выпуска: 2013
Жанр: Документальный, научно-познавательный, психология, исследование
Выпущено: CША, Discovery Channel
Описание:
Телепрограмма «Аномалии тела» будет путешествовать по всему миру и знакомить нас с необыкновенными историями. Начиная от индийских детей-укротителей змей и заканчивая самой волосатой девочкой в мире. Данная телепередача расскажет нам настоящие истории из жизни людей и выйдет за пределы обычных газетных сенсаций. Детальные личные интервью и показ самых необычных ежедневных трудностей превращает эти истории в по настоящему впечатляющие...
Перевод: Одноголосый закадровый, профессиональный
Продолжительность: ~ 00:43:20
Видеокодек: AVC
Битрейт видео: ~1476 kb/s
Размер кадра: 704 x 400
Качество видео: WEBRip
Аудиокодек: AC-3, 2ch.
Битрейт аудио: 192 kb/s

MediaInfo

Формат : Matroska
Версия формата : Version 1
Размер файла : 528 Мбайт
Продолжительность : 43 м.
Общий поток : 1702 Кбит/сек
Дата кодирования : UTC 2013-05-21 09:26:16
Библиотека кодирования : WonderShare Matroska Muxer
Видео
Идентификатор : 1
Формат : AVC
Формат/Информация : Advanced Video Codec
Профиль формата : [url=mailto:[email protected]][email protected][/url]
Параметр CABAC формата : Нет
Параметр ReFrames формата : 1 кадр
Идентификатор кодека : V_MPEG4/ISO/AVC
Продолжительность : 43 м.
Битрейт : 1476 Кбит/сек
Ширина : 704 пикселя
Высота : 400 пикселей
Соотношение сторон : 16:9
Частота кадров : 25,000 кадров/сек
Цветовое пространство : YUV
Субдискретизация насыщенности : 4:2:0
Битовая глубина : 8 бит
Тип развёртки : Прогрессивная
Бит/(Пиксели*Кадры) : 0.210
Размер потока : 458 Мбайт (87%)
Default : Да
Forced : Нет
Аудио
Идентификатор : 2
Формат : AC-3
Формат/Информация : Audio Coding 3
Расширение режима : CM (complete main)
Идентификатор кодека : A_AC3
Продолжительность : 43 м.
Вид битрейта : Постоянный
Битрейт : 192 Кбит/сек
Каналы : 2 канала
Расположение каналов : Front: L R
Частота : 48,0 КГц
Битовая глубина : 16 бит
Метод сжатия : С потерями
Задержка видео : -120 мс.
Размер потока : 59,5 Мбайт (11%)
Default : Да
Forced : Нет
Скриншоты:          Время раздачи: 24/7. До первых 5 скачавших.
Аномалии тела на NoNaMe Club
Other forum [Profile] [PM]
Display posts from previous:    
Reply to topic

The time now is: Today 14:11

All times are GMT + 3 Hours



You cannot post new topics in this forum
You cannot reply to topics in this forum
You cannot edit your posts in this forum
You cannot delete your posts in this forum
You cannot vote in polls in this forum
You cannot attach files in this forum
You cannot download files in this forum