Today is a free download without charge Download

Таймлесс. Рубиновая книга / Rubinrot (Феликс Фуксштайнер / Felix Fuchssteiner) [2013, Германия, фантастика, фэнтези, приключения, BDRemux 1080p] Dub + Sub Rus + Original Ger

Reply to topic
 
Author
Message

Omen ®

Longevity: 8 years 5 months

Posts: 181087

Торрент-статистика

Post 21-May-2013 17:07

[Quote]

Таймлесс. Рубиновая книга / Rubinrot
Страна: Германия
Жанр: фантастика, фэнтези, приключения
Год выпуска: 2013
Продолжительность: 02:01:11
Перевод: Профессиональный (дублированный)
Cубтитры: русские
Оригинальная аудиодорожка: немецкий
Режиссер: Феликс Фуксштайнер / Felix Fuchssteiner
В ролях: Мария Эрих, Яннис Нивёнер, Вероника Феррес, Уве Коккиш, Катарина Тальбах, Готфрид Йон, Герлинде Локкер, Рюдигер Фоглер, Флориан Бартоломай, Дженнифер Лотси
Роли дублировали: Наталья Терешкова, Сергей Смирнов, Елена Харитонова, Михаил Бескаравайный, Ирина Гришина
Описание: Живущая в Лондоне шестнадцатилетняя Гвендолин Шеферд случайно узнает, что обладает уникальным геном путешественника во времени, который унаследовала от прапрабабушки. Теперь девушка может ежедневно переноситься в прошлое, и с каждым днем загадок становится все больше. Что такое «Тайна Двенадцати»? Кто охотится на путешественников во времени в прошлом? И почему все вокруг думают, что она обладает какой-то «магией ворона»?
Тип релиза: BDRemux 1080p
Контейнер: MKV
Видео: 1920 x 1080 (1.778) at 24.000 fps, AVC at 20,0 Мбит/сек
Аудио: DTS at 768 Кбит/сек, 6 каналов, 48,0 КГц (RUS)
Аудио 2: DTS at 768 Кбит/сек, 6 каналов, 48,0 КГц (DE)
Формат субтитров: softsub (SRT)

MediaInfo

Общее
Полное имя : Rubinrot.2013.Blu-Ray Remux (1080p).mkv
Формат : Matroska
Версия формата : Version 4 / Version 2
Размер файла : 17,9 Гбайт
Продолжительность : 2 ч. 1 м.
Общий поток : 21,2 Мбит/сек
Дата кодирования : UTC 2013-05-21 12:05:46
Программа кодирования : mkvmerge v6.1.0 ('Old Devil') built on Mar 4 2013 09:10:42
Библиотека кодирования : libebml v1.3.0 + libmatroska v1.4.0
Видео
Идентификатор : 1
Формат : AVC
Формат/Информация : Advanced Video Codec
Профиль формата : [email protected]
Параметр CABAC формата : Да
Параметр ReFrames формата : 4 кадра
Идентификатор кодека : V_MPEG4/ISO/AVC
Продолжительность : 2 ч. 1 м.
Вид битрейта : Постоянный
Битрейт : 20,0 Мбит/сек
Ширина : 1920 пикселей
Высота : 1080 пикселей
Соотношение сторон : 16:9
Режим частоты кадров : Постоянный
Частота кадров : 24,000 кадра/сек
Стандарт вещания : NTSC
Цветовое пространство : YUV
Субдискретизация насыщенности : 4:2:0
Битовая глубина : 8 бит
Тип развёртки : Прогрессивная
Бит/(Пиксели*Кадры) : 0.402
Размер потока : 16,3 Гбайт (91%)
Язык : English
Default : Да
Forced : Нет
Основные цвета : BT.709
Характеристики трансфера : BT.709
Коэффициенты матрицы : BT.709
Аудио #1
Идентификатор : 2
Формат : DTS
Формат/Информация : Digital Theater Systems
Режим : 16
Параметр Endianness формата : Big
Идентификатор кодека : A_DTS
Продолжительность : 2 ч. 1 м.
Вид битрейта : Постоянный
Битрейт : 768 Кбит/сек
Каналы : 6 каналов
Расположение каналов : Front: L C R, Side: L R, LFE
Частота : 48,0 КГц
Битовая глубина : 16 бит
Метод сжатия : С потерями
Размер потока : 666 Мбайт (4%)
Заголовок : DUB
Язык : Russian
Default : Да
Forced : Нет
Аудио #2
Идентификатор : 3
Формат : DTS
Формат/Информация : Digital Theater Systems
Режим : 16
Параметр Endianness формата : Big
Идентификатор кодека : A_DTS
Продолжительность : 2 ч. 1 м.
Вид битрейта : Постоянный
Битрейт : 768 Кбит/сек
Каналы : 6 каналов
Расположение каналов : Front: L C R, Side: L R, LFE
Частота : 48,0 КГц
Битовая глубина : 16 бит
Метод сжатия : С потерями
Размер потока : 666 Мбайт (4%)
Язык : German
Default : Нет
Forced : Нет
Текст
Идентификатор : 4
Формат : UTF-8
Идентификатор кодека : S_TEXT/UTF8
Идентификатор кодека/Информация : UTF-8 Plain Text
Язык : Russian
Default : Нет
Forced : Нет

Скриншоты

Other forum [Profile] [PM]

Dracula

Longevity: 7 years 5 months

Posts: 11217

Торрент-статистика

Post 22-May-2013 07:38 (after 14 hours)

Топик был перенесен из форума Зарубежное кино (HD Video) в форум Зарубежное кино


kogesan
 
Display posts from previous:    
Reply to topic

The time now is: Today 10:02

All times are GMT + 3 Hours



You cannot post new topics in this forum
You cannot reply to topics in this forum
You cannot edit your posts in this forum
You cannot delete your posts in this forum
You cannot vote in polls in this forum
You cannot attach files in this forum
You cannot download files in this forum