Today is a free download without charge Download

Alice Cooper • AVO Session • Basel • Switzerland • 2012 [2013, Rock, Shock rock, HDTV 720p]

Reply to topic
 
Author
Message

Omen ®

Longevity: 8 years 3 months

Posts: 181087

Торрент-статистика

Post 21-May-2013 17:07

[Quote]

2012
Жанр: Rock, Shock rock
Продолжительность: 01:19:00
Год выпуска: 2013
01. The Underture/Hello Hooray (Judy Collins cover)
02. House of Fire
03. No More Mr. Nice Guy
04. I'll Bite Your Face Off
05. Be My Lover
06. Caffeine
07. Billion Dollar Babies
08. The Congregation
09. Hey Stoopid
10. Dirty Diamonds (including drum solo)
11. Welcome to My Nightmare
12. Ballad of Dwight Fry
13. Go to Hell
14. He's Back (The Man Behind the Mask)
15. Devil's Food
16. Feed My Frankenstein
17. I'm Eighteen
18. Under My Wheels
19. Poison
20. School's Out (including 'Another Brick In The Wall')

Качество: HDTV 720p
Контейнер: TS
Видео кодек: MPEG4
Аудио кодек: AC3
Видео: MPEG4 Video (H264) 1280x720 50fps 9961 Kbps
Аудио: Dolby AC3 48000Hz 6ch 448kbps (Dolby AC3, 6 ch)

Отчёт MediaInfo / BDInfo

ОбщееИдентификатор : 1 (0x1)Полное имя : E:\Alice Cooper - AVO Session 2012.tsФормат : MPEG-TSРазмер файла : 6,04 ГбайтПродолжительность : 1 ч. 18 м.Режим общего битрейта : ПеременныйОбщий поток : 11,0 Мбит/сек
ВидеоИдентификатор : 4113 (0x1011)Идентификатор меню : 1 (0x1)Формат : AVCФормат/Информация : Advanced Video CodecПрофиль формата : [email protected]Параметр CABAC формата : ДаПараметр ReFrames формата : 3 кадраПараметр GOP формата : M=2, N=24Идентификатор кодека : 27Продолжительность : 1 ч. 18 м.Битрейт : 9961 Кбит/секШирина : 1280 пикселейВысота : 720 пикселейСоотношение сторон : 16:9Частота кадров : 50,000 кадров/секСтандарт вещания : ComponentЦветовое пространство : YUVСубдискретизация насыщенности : 4:2:0Битовая глубина : 8 битТип развёртки : ПрогрессивнаяБит/(Пиксели*Кадры) : 0.216Размер потока : 5,50 Гбайт (91%)Основные цвета : BT.709Характеристики трансфера : BT.709Коэффициенты матрицы : BT.709
АудиоИдентификатор : 4352 (0x1100)Идентификатор меню : 1 (0x1)Формат : AC-3Формат/Информация : Audio Coding 3Расширение режима : CM (complete main)Параметр Endianness формата : BigИдентификатор кодека : 129Продолжительность : 1 ч. 18 м.Вид битрейта : ПостоянныйБитрейт : 448 Кбит/секКаналы : 6 каналовРасположение каналов : Front: L C R, Side: L R, LFEЧастота : 48,0 КГцБитовая глубина : 16 битМетод сжатия : С потерямиЗадержка видео : 27 мс.Размер потока : 253 Мбайт (4%)Язык : German
Other forum [Profile] [PM]
Display posts from previous:    
Reply to topic

The time now is: Today 23:34

All times are GMT + 3 Hours



You cannot post new topics in this forum
You cannot reply to topics in this forum
You cannot edit your posts in this forum
You cannot delete your posts in this forum
You cannot vote in polls in this forum
You cannot attach files in this forum
You cannot download files in this forum