Today is a free download without charge Download

АЭЛЛА - Ночные ведьмы (Aella - Night Witches)[2013, Rock, HDTV 1080i]

Reply to topic
 
Author
Message

Omen ®

Longevity: 8 years 3 months

Posts: 181087

Торрент-статистика

Post 21-May-2013 17:07

[Quote]

AELLA - Ночные ведьмы

Жанр: Rock
Продолжительность: 06:43
Год выпуска: 2013
Описание: Посвящается советским летчицам Великой Отечественной Войны.
Доп. информация: Под именем "Ночные Ведьмы" девушки из 46-го Гвардейского Таманского авиаполка вошли в историю. Так в годы Великой Отечественной войны ночных бомбардировщиц окрестили немцы. За каждый сбитый ПО-2, управляемый молодыми девчонками, немцы получали серебряный Рыцарский крест и двойной оклад. Так высоко немецкое руководство ценило головы ночных бомбардировщиц, которые за 3 года непрерывных боев совершили более 24 тыс. вылетов и сбросили на позиции врага более 3000 тонн бомбового груза. И все это совершили юные девушки, общая численность которых была чуть более 100 человек личного состава.
За годы войны каждая третья из них погибла, 23 стали Героями Советского Союза, 2 - Героями России и одна - Героем Республики Казахстан. Многие из них получили эти звания посмертно.

Текст песни Ночные Ведьмы

1.
Сник закат, день угас,
Вновь по машинам зовет нас приказ.
Тьмы вуаль дарит шанс,
Ласточек скроет от вражеских глаз.
Пусть высота мала и хрупок крыльев фарс,
Но долг вселяет силу в нас!
Небесный тихоход возьмет привычный курс, -
Любой ценой доставить груз!
Припев:
Высокий пульс! В глазах огонь! Ветер в крыльях!
От женских рук стальной штурвал любовью к Родине согрет.
И пусть дрожит от страха враг - не станем горстью пыли;
Пока в сердцах живет мечта, я знаю хуже смерти лишь забвение.
2.
Видим цель - бомбы вниз!
В огненном круге вальсирует жизнь!
Но судьбой не дано
В полном составе вернуться домой.
В бою нет разницы, для пуль мы все равны:
Кому звезда, кому кресты.
Ночные Ведьмы за победу платят долг.
Сорок шестой гвардейский полк.
3.
Мир воскрес... Утра свет...
Стихли сражения тех страшных лет.
В книге войн нет страниц.
Лишь фотографии девичьих лиц.
Нет больше Ведьм Ночных, пришли другие дни,
Но в памяти живут они.
Как дань отдать тому, кто кровь за нас пролил?
Исполним героиням гимн!

О группе Аэлла

Женская Рок-Группа Аэлла стала широко известна благодаря феерическому исполнению тяжелых композиций в стиле hard-n-heavy. Хрупкие девушки очень эффектно смотрятся на фоне звуков тяжелого рока. Тяжелый рок редко исполняется женскими группами. Поэтому группа Аэлла привлекает на свои концерты большое число поклонников из всех уголков России.
Свое название группа Аэлла получила по имени одной из гарпий, которое дословно переводится как Вихрь. Действительно, молодые, амбициозные девчонки подобно вихрю ворвались в мир московского тяжелого рока.
Песни группы настолько разные, что их трудно отнести к какому-то одному стилю. Это и хард рок начала 80х, и павер 90х и веяния нового века. Яркие, запоминающиеся мелодии, трогательные и глубокие тексты плюс задор и обаяние молодости - это и есть Аэлла!
Группа Аэлла была образована в 2007 году.
Основу репертуара составляют композиции собственного сочинения
[email protected]
http://www.aella.ru
http://vk.com/aellaband
http://www.facebook.com/aellaRu
http://aella-metalband.livejournal.com/
http://www.youtube.com/user/aellaBand
https://twitter.com/aellaRu
Состав
Наталья Переверзева — бас
Маня Удалая — ударные
Тиллен Аверс — вокал
Татьяна Лепская — клавиши
Ольга Андреева — гитара
Алексей Мартин — музыкальный продюсер
Музыка: Алексей "Мартин" Ярков
Слова: Игорь "Воланд" Коротышев
Режиссер: Александр Горюнов
Свет: Семен Жирнов, Станислав Смирнов, Андрей Михайличенко (Luxury sound)
Оператор: Алексей Гавренков
Группа АЭЛЛА:
Наталья Переверзева — бас гитара
Ольга Володькина - гитара
Мария В. Андреева — ударные
Tillen Avers — вокал
Татьяна Wayne Лепская — клавиши
Ольга Андреева — гитара
Качество: HDTV 1080i
Контейнер: MP4
Видео кодек: H.264
Аудио кодек: MP3
Видео: MPEG4 Video (H264) 1920x1080 30.00fps
Аудио: AAC 44100Hz stereo 191kbps

Отчёт MediaInfo / BDInfo

GeneralFormat : MPEG-4Format profile : Base Media / Version 2Codec ID : mp42File size : 294 MiBDuration : 6mn 43sOverall bit rate : 6 116 KbpsEncoded date : UTC 2013-05-08 07:55:30Tagged date : UTC 2013-05-08 07:55:30gsst : 0gstd : 404026gssd : BC1210524MH1369117664653223gshh : r1---sn-2apm-f5fee.c.youtube.com
VideoID : 1Format : AVCFormat/Info : Advanced Video CodecFormat profile : [email protected] settings, CABAC : YesFormat settings, ReFrames : 1 frameCodec ID : avc1Codec ID/Info : Advanced Video CodingDuration : 6mn 43sBit rate mode : VariableBit rate : 5 922 KbpsMaximum bit rate : 10.0 MbpsWidth : 1 920 pixelsHeight : 1 080 pixelsDisplay aspect ratio : 16:9Frame rate mode : ConstantFrame rate : 30.000 fpsColor space : YUVChroma subsampling : 4:2:0Bit depth : 8 bitsScan type : ProgressiveBits/(Pixel*Frame) : 0.095Stream size : 285 MiB (97%)Tagged date : UTC 2013-05-08 07:56:05
AudioID : 2Format : AACFormat/Info : Advanced Audio CodecFormat profile : LCCodec ID : 40Duration : 6mn 43sBit rate mode : VariableBit rate : 192 KbpsMaximum bit rate : 201 KbpsChannel(s) : 2 channelsChannel positions : Front: L RSampling rate : 44.1 KHzCompression mode : LossyStream size : 9.24 MiB (3%)Title : IsoMedia File Produced by Google, 5-11-2011Encoded date : UTC 2013-05-08 07:55:56Tagged date : UTC 2013-05-08 07:56:05

Скриншоты

Other forum [Profile] [PM]
Display posts from previous:    
Reply to topic

The time now is: Today 07:36

All times are GMT + 3 Hours



You cannot post new topics in this forum
You cannot reply to topics in this forum
You cannot edit your posts in this forum
You cannot delete your posts in this forum
You cannot vote in polls in this forum
You cannot attach files in this forum
You cannot download files in this forum