Today is a free download without charge Download

Перси Джексон и похититель молний / Percy Jackson & the Olympians: The Lightning Thief (Крис Коламбус) [2010 г., фэнтези, боевик, приключения, семейный, BDRip]

Reply to topic
 
Author
Message

sassad ®

Gender:

Longevity: 8 years 1 month

Posts: 1216

Location: Галич

Торрент-статистика

Post 02-Aug-2011 20:10

[Quote]

Перси Джексон и похититель молний / Percy Jackson & the Olympians: The Lightning Thief--
Год выпуска: 2010
Страна: США
Жанр: фэнтези, боевик, приключения, семейный
Продолжительность: 114 мин.
Перевод: Профессиональный (полное дублирование)-Режиссер: Крис Коламбус
Продюссер: Майкл Барнатан, Крис Коламбус, Марк Рэдклифф
Сценарий: Крэйг Титли, Рик Риордан-Бюджет: $95 000 000
Премьера в мире: 2 февраля 2010
5.80 (32 223)----
В ролях: Логан Лерман, Брэндон Т. Джексон, Александра Даддарио, Джейк Абель, Шон Бин, Пирс Броснан, Стив Кугэн, Розарио Доусон, Мелина Канакаредес, Кэтрин Кинер-Описание: Главный персонаж — мальчик, узнавший, что его род берет начало от греческого бога. В сопровождении сатира и дочери Афины он отправляется в опасное путешествие, чтобы примирить богов. На протяжении всего фильма храбреца пытается остановить целый сонм мифологических врагов. Его также ждет встреча с отцом и оракулом, предсказывающим предательство друга.-Качество: BDRip
Формат: MKV
Видео кодек: H.264
Аудио кодек: AC3
Видео: 1280х544/ 5252 Кбит/сек, 23.976 кадр/сек, AVC, x264, 2.35:1, 0.140 Бит/(Пиксели*Кадры)
Аудио: AC-3, 448 Кбит/сек, 6 канала(ов), 48,0 КГц

MediaInfo

General
Complete name : D:DCPercy.Jackson.&.the.Olympians.The.Lightning.Thief.2010.720p.[nolimits-team].mkv
Format : Matroska
File size : 2.23 GiB
Duration : 1h 58mn
Overall bit rate : 2 686 Kbps
Movie name : Rip by victordan 95
Encoded date : UTC 2011-07-12 07:07:17
Writing application : mkvmerge v4.6.0 ('Still Crazy After All These Years') built on Mar 10 2011 02:50:32
Writing library : libebml v1.2.0 + libmatroska v1.1.0
Video
ID : 1
Format : AVC
Format/Info : Advanced Video Codec
Format profile : [email protected]
Format settings, CABAC : Yes
Format settings, ReFrames : 6 frames
Muxing mode : Container [email protected]
Codec ID : V_MPEG4/ISO/AVC
Duration : 1h 58mn
Bit rate : 2 249 Kbps
Nominal bit rate : 2 302 Kbps
Width : 1 280 pixels
Height : 544 pixels
Display aspect ratio : 2.35:1
Original display aspect ratio : 2.35:1
Frame rate : 23.976 fps
Resolution : 8 bits
Colorimetry : 4:2:0
Scan type : Progressive
Bits/(Pixel*Frame) : 0.135
Stream size : 1.86 GiB (84%)
Writing library : x264 core 115 r1995 c1e60b9
Encoding settings : cabac=1 / ref=6 / deblock=1:0:0 / analyse=0x3:0x113 / me=umh / subme=8 / psy=1 / psy_rd=1.00:0.00 / mixed_ref=1 / me_range=16 / chroma_me=1 / trellis=1 / 8x8dct=1 / cqm=0 / deadzone=21,11 / fast_pskip=1 / chroma_qp_offset=-2 / threads=3 / sliced_threads=0 / slices=4 / nr=0 / decimate=1 / interlaced=0 / bluray_compat=1 / constrained_intra=0 / bframes=3 / b_pyramid=0 / b_adapt=1 / b_bias=0 / direct=3 / weightb=1 / open_gop=0 / weightp=1 / keyint=24 / keyint_min=1 / scenecut=40 / intra_refresh=0 / rc_lookahead=24 / rc=2pass / mbtree=1 / bitrate=2302 / ratetol=1.0 / qcomp=0.60 / qpmin=0 / qpmax=69 / qpstep=4 / cplxblur=20.0 / qblur=0.5 / vbv_maxrate=15000 / vbv_bufsize=15000 / nal_hrd=vbr / ip_ratio=1.10 / aq=1:1.00
Audio
ID : 2
Format : AC-3
Format/Info : Audio Coding 3
Codec ID : A_AC3
Duration : 1h 58mn
Bit rate mode : Constant
Bit rate : 384 Kbps
Channel(s) : 6 channels
Channel positions : Front: L C R, Surround: L R, LFE
Sampling rate : 48.0 KHz
Stream size : 326 MiB (14%)
Language : Russian
Text #1
ID : 3
Format : UTF-8
Codec ID : S_TEXT/UTF8
Codec ID/Info : UTF-8 Plain Text
Text #2
ID : 4
Format : UTF-8
Codec ID : S_TEXT/UTF8
Codec ID/Info : UTF-8 Plain Text
Title : Rus
Language : Russian
Menu
00:00:00.000 : en:00:00:00.000
00:04:39.404 : en:00:04:39.404
00:07:28.448 : en:00:07:28.448
00:09:47.295 : en:00:09:47.295
00:14:56.020 : en:00:14:56.020
00:20:28.894 : en:00:20:28.894
00:24:39.770 : en:00:24:39.770
00:31:09.993 : en:00:31:09.993
00:34:25.939 : en:00:34:25.939
00:38:50.578 : en:00:38:50.578
00:41:23.147 : en:00:41:23.147
00:43:15.384 : en:00:43:15.384
00:46:49.557 : en:00:46:49.557
00:50:05.836 : en:00:50:05.836
00:56:49.615 : en:00:56:49.615
01:01:35.400 : en:01:01:35.400
01:04:49.260 : en:01:04:49.260
01:10:20.591 : en:01:10:20.591
01:13:32.783 : en:01:13:32.783
01:20:58.353 : en:01:20:58.353
01:25:16.862 : en:01:25:16.862
01:29:38.915 : en:01:29:38.915
01:33:42.742 : en:01:33:42.742
01:38:35.701 : en:01:38:35.701
01:41:45.850 : en:01:41:45.850
01:44:47.114 : en:01:44:47.114
01:47:43.582 : en:01:47:43.582
01:52:12.017 : en:01:52:12.017
-        -

_________________


Last edited by sassad on 2011-08-03 17:24; edited 1 time in total
Other forum [Profile] [PM]

Omen

Longevity: 6 years 6 months

Posts: 181112

Торрент-статистика

Post 03-Aug-2011 00:16 (after 4 hours)

[Quote]

Исправь 1920x816 на 1280х544. Судя по MI.


Last edited by Omen on 2011-08-03 13:13; edited 1 time in total
Other forum [Profile] [PM]
Display posts from previous:    
Reply to topic

The time now is: Today 01:42

All times are GMT + 3 Hours



You cannot post new topics in this forum
You cannot reply to topics in this forum
You cannot edit your posts in this forum
You cannot delete your posts in this forum
You cannot vote in polls in this forum
You cannot attach files in this forum
You cannot download files in this forum