Today is a free download without charge Download

Техасская резня бензопилой 3D / Texas Chainsaw 3D ( Джон Льюсенхоп ) (2013, Ужасы, Триллер ) BDRemux [1080p] [Line]

Reply to topic
 
Author
Message

Витек1 ®

Gender:

Longevity: 8 years 3 months

Posts: 451

Location: Житомир

Торрент-статистика

Post 21-May-2013 12:39

[Quote]

Техасская резня бензопилой 3D / Texas Chainsaw 3D
«Зло носит много граней.»
- Русское название: Техасская резня бензопилой 3D
Оригинальное название: Texas Chainsaw 3D
Год выпуска: 2013
Производство: США | Leatherface Productions, Lionsgate, Mainline Pictures
Жанр: Ужасы, Триллер
Перевод: Дублированный [Чистый звук]
Субтитры: Вшитые отключаемые
Язык субтитров: Русский, Английский (Full, SDH, SDH Colored), Испанский-Дата мировой премьеры: 3 января 2013
Дата российской премьеры: 7 февраля 2013, «Наше Кино»-Режиссер: Джон Льюсенхоп-Продюсер: Карл Маццоконе, Синди Бреннер, Марк Бёрг-Актеры: Александра Даддарио, Дэн Игер, Трей Сонгз, Таня Рэймонд, Том Бэрри, Пол Рэй, Билл Моусли, Скотт Иствуд, Шон Сайпос, Керам Малики-Санчес ...-Роли дублировали: Наталья Фищук, Прохор Чеховской, Вероника Саркисова, Александр Хорлин, Константин Карасик ...-Описание фильма:
Местный шериф согласился организовать для Джеба Сойера, который и скрывался под Кожаным лицом, честный судебный процесс и предоставить ему адвоката. Однако его намерениям мешает мэр, который ведет за собой толпу людей, жаждущих линчевать кровавого маньяка. Когда ситуация начинает выходить из-под контроля, а горожане принимаются ладить петли для убийцы, кто-то бросает в дом Сойера бутылку с зажигательной смесью. Дом сгорает, а вместе с ним в огне гибнут и все, кто в нем находился, включая самого Джеба и его отца. Разумеется, спустя определенное время убийства с помощью бензопилы начинаются снова. Первое предположение шерифа — Джеб Сойер выжил и решил отомстить. Но он ли это на самом деле? И если нет, то кто?- Продолжительность: 01:31:57
Качество видео: BDRemux [1080p]
Видеокодек: MPEG-4 AVC/H.264
Битрейт видео: ~22990 Кбит/сек
Размер кадра: 1920 x 1080 (1.778) at 23.976 fps : 0.519 Bits/Pixel
Аудио #1: AC3 448 Кбит/сек (6ch), 48,0 КГц, 16 бит [Русский, Дубляж]
Аудио #2: DTS-HD MA 5114 Кбит/сек (8ch), 48,0 КГц, 24 бит [Английский]
Аудио #3: AC3 192 Кбит/сек (2ch), 48,0 КГц, 16 бит [Английский-комментарии #1]
Аудио #4: AC3 192 Кбит/сек (2ch), 48,0 КГц, 16 бит [Английский-комментарии #2]
Аудио #3: AC3 192 Кбит/сек (2ch), 48,0 КГц, 16 бит [Английский-комментарии #3]
Релиз:

Трейлер / Ролик

Знаете ли вы, что...

• Первый сиквел «Техасской резни бензопилой», снятый без поддержки компании Platinum Dunes.
• В 2009 году компания Platinum Dunes объявила о своем отказе продолжать франшизу после выхода картины «Техасская резня бензопилой: Начало». Права на «Техасскую резню бензопилой» были перекуплены студией Lionsgate.
• Мэрилин Бёрнс, которая играла Салли Хардести в оригинальном фильме, здесь играет персонажа по имени Верна. Этот фильм и фильм «Обвальщики» (2012) стали ее первым появлением в кино за последние 28 лет (если не считать ее эпизодическую роль в фильме «Техасская резня бензопилой 4: Новое поколение», 1994).
• Первоначально выдвигалась идея о новой трилогии. При этом второй фильм являлся бы приквелом к первому. Первый фильм был бы полностью про больницу, второй описывал бы предшествующие события, а третий завершал бы сюжетную линию. Но, побоявшись, что это слишком амбициозный и рискованный проект, продюсеры предпочли следовать исходной истории.
• Сцены в горящем доме Сойера в начале фильма снимались в Шривпорте в 40-градусную жару.
• Гуннар Хансен играл Кожаное Лицо в фильме «Техасская резня бензопилой» (1974).
• Джон Дуган, который сыграл дедушку в фильме «Техасская резня бензопилой» (1974), повторил свою роль и в этом фильме.
• Билл Моусли играл Роберта Сойера в фильме «Техасская резня бензопилой 2» (1986). В этом фильме он сыграл Дрейтона Сойера, повара из первых двух фильмов.
• В этом фильме снимались четыре актера из предыдущих частей франшизы, до этого максимально было три человека (в фильме «Техасская резня бензопилой 4: Новое поколение», 1994).
• Персонаж Тома Бэрри, шериф Хупер, назван так в честь Тоуба Хупера, который был сценаристом и режиссером первых двух фильмов.
• У этого фильма не было предварительного показа для кинокритиков.
• В первоначальной версии сценария имя Кожаного Лица было Джебедия Сойер. Однако позже его заменили на Джедидия Сойер. В ремейке 2003 года Джедидия — имя ребенка в семье Хьюитт.
• В этом фильме, как и в оригинале, первую жертву забили до смерти во время блужданий по дому в одиночестве.
• В этом фильме три различных актера играют роль Кожаного Лица. Гуннар Хансен изображает его в архивных кадрах, Сэм МакКинзи играет его в молодости, Дэн Йеджер исполняет основную роль в фильме.
Действие фильма происходит в 2012 году. В начале картины показывают Хизер Миллер ребенком в 1974 году. Значит, в 2012 году ей должно быть не менее 38 лет, однако ее персонаж выглядит гораздо моложе. Актрисе Александре Даддарио, исполнявшей эту роль, на момент съемок было 26 лет.
• События, когда сгорел дом, а вся семья была убита, произошли 19 августа. Однако позже в фильме, когда Хизер читает газету, заметка об этом расположена на первой странице, а само издание датировано 19 августа. Но события, которые описываются в заметке, произошли после того момента, как она вышла.
• Когда подбирают Дэррила, идет сильный дождь. Но в следующих кадрах из машины видно, что за окном никакого дождя нет.
• Когда Хизер просматривает коробку с уликами в полицейском участке, она находит экземпляр городской газеты. Когда она переворачивает ее, чтобы прочитать заголовок, на газете указана лишь число, 19 августа, но нет года.
• Когда один из персонажей фильма использует приложение FaceTime, чтобы показать остальным, что он видит в доме Сойера, его iPhone фокусируется (это заметно по синему квадрату в центре экрана), но такое не происходит во время видеовызова. Такая индикация говорит о том, что у него просто был включен режим камеры.

MediaInfo:

H:\Texas.Chainsaw.2013.D.BDREMUX.1080p.NNM-CLUB.mkv
General
Unique ID : 251942196677760906526693288913682050269 (0xBD8A4D555A79A403AD930F5C54742CDD)
Complete name : H:\000 Òåõàññêàÿ ðåçíÿ áåíçîïèëîé 3D Texas.Chainsaw.2013.1080p.BluRay.DTS.x264-PublicHD\Texas.Chainsaw.2013.D.BDREMUX.1080p.NNM-CLUB.mkv
Format : Matroska
Format version : Version 2
File size : 18.6 GiB
Duration : 1h 31mn
Overall bit rate mode : Variable
Overall bit rate : 29.0 Mbps
Movie name : Texas.Chainsaw.2013.D.BDREMUX.1080p.NNM-CLUB
Encoded date : UTC 2013-05-17 10:40:22
Writing application : mkvmerge v2.9.9 ('Tutu') built on Nov 25 2009 21:13:32
Writing library : libebml v0.7.9 + libmatroska v0.8.1
Video #1
ID : 1
Format : AVC
Format/Info : Advanced Video Codec
Format profile : [url=mailto:[email protected]][email protected][/url]
Format settings, CABAC : Yes
Format settings, ReFrames : 3 frames
Format settings, GOP : M=1, N=12
Codec ID : V_MPEG4/ISO/AVC
Duration : 1h 31mn
Bit rate mode : Variable
Bit rate : 25.8 Mbps
Maximum bit rate : 30.0 Mbps
Width : 1 920 pixels
Height : 1 080 pixels
Display aspect ratio : 16:9
Frame rate : 23.976 fps
Color space : YUV
Chroma subsampling : 4:2:0
Bit depth : 8 bits
Scan type : Progressive
Bits/(Pixel*Frame) : 0.519
Stream size : 16.6 GiB (89%)
Title : -=/*spam*/=-
Language : English
Default : No
Forced : No
Audio #2
ID : 2
Format : AC-3
Format/Info : Audio Coding 3
Mode extension : CM (complete main)
Format settings, Endianness : Big
Codec ID : A_AC3
Duration : 1h 31mn
Bit rate mode : Constant
Bit rate : 448 Kbps
Channel(s) : 6 channels
Channel positions : Front: L C R, Side: L R, LFE
Sampling rate : 48.0 KHz
Bit depth : 16 bits
Compression mode : Lossy
Stream size : 295 MiB (2%)
Title : AC3.448.Kbps (6ch) Russian
Language : Russian
Default : Yes
Forced : No
Audio #3
ID : 3
Format : DTS
Format/Info : Digital Theater Systems
Format profile : MA / Core
Codec ID : A_DTS
Duration : 1h 31mn
Bit rate mode : Variable
Bit rate : 1 606 Kbps / 1 510 Kbps
Channel(s) : 8 channels / 6 channels
Channel positions : Front: L C R, Side: L R, Back: L R, LFE / Front: L C R, Side: L R, LFE
Sampling rate : 48.0 KHz
Bit depth : 24 bits
Compression mode : Lossless / Lossy
Title : DTS-HD MA 5114 kbps (8ch)
Language : English
Default : No
Forced : No
Audio #4
ID : 4
Format : AC-3
Format/Info : Audio Coding 3
Mode extension : CM (complete main)
Format settings, Endianness : Big
Codec ID : A_AC3
Duration : 1h 31mn
Bit rate mode : Constant
Bit rate : 192 Kbps
Channel(s) : 2 channels
Channel positions : Front: L R
Sampling rate : 48.0 KHz
Bit depth : 16 bits
Compression mode : Lossy
Stream size : 126 MiB (1%)
Title : AC3.192.Kbps (2ch) English (Commentary) #1
Default : No
Forced : No
Audio #5
ID : 5
Format : AC-3
Format/Info : Audio Coding 3
Mode extension : CM (complete main)
Format settings, Endianness : Big
Codec ID : A_AC3
Duration : 1h 31mn
Bit rate mode : Constant
Bit rate : 192 Kbps
Channel(s) : 2 channels
Channel positions : Front: L R
Sampling rate : 48.0 KHz
Bit depth : 16 bits
Compression mode : Lossy
Stream size : 126 MiB (1%)
Title : AC3.192.Kbps (2ch) English (Commentary) #2
Language : English
Default : No
Forced : No
Audio #6
ID : 6
Format : AC-3
Format/Info : Audio Coding 3
Mode extension : CM (complete main)
Format settings, Endianness : Big
Codec ID : A_AC3
Duration : 1h 31mn
Bit rate mode : Constant
Bit rate : 192 Kbps
Channel(s) : 2 channels
Channel positions : Front: L R
Sampling rate : 48.0 KHz
Bit depth : 16 bits
Compression mode : Lossy
Stream size : 126 MiB (1%)
Title : AC3.192.Kbps (2ch) English (Commentary) #
Language : English
Default : No
Forced : No
Text #7
ID : 7
Format : UTF-8
Codec ID : S_TEXT/UTF8
Codec ID/Info : UTF-8 Plain Text
Title : Russian (Full)
Language : Russian
Default : No
Forced : No
Text #8
ID : 8
Format : UTF-8
Codec ID : S_TEXT/UTF8
Codec ID/Info : UTF-8 Plain Text
Title : English (Full)
Language : English
Default : No
Forced : No
Text #9
ID : 9
Format : UTF-8
Codec ID : S_TEXT/UTF8
Codec ID/Info : UTF-8 Plain Text
Title : English (SDH)
Language : English
Default : No
Forced : No
Text #10
ID : 10
Format : UTF-8
Codec ID : S_TEXT/UTF8
Codec ID/Info : UTF-8 Plain Text
Title : English (SDH-Colored)
Language : English
Default : No
Forced : No
Text #11
ID : 11
Format : UTF-8
Codec ID : S_TEXT/UTF8
Codec ID/Info : UTF-8 Plain Text
Title : Spanish (Full)
Language : Spanish
Default : No
Forced : No
Скриншоты:

         
         


_________________
Скачал сам, дай скачать другому!!!Не забудь сказать -
Other forum [Profile] [PM]

RUGUI

Gender:

Longevity: 10 years

Posts: 451

Торрент-статистика

Post 21-May-2013 12:45 (after 5 minutes)

[Quote]

Витек1, Спасибо за труды Thumbs up
Other forum [Profile] [PM]
Display posts from previous:    
Reply to topic

The time now is: Today 19:03

All times are GMT + 3 Hours



You cannot post new topics in this forum
You cannot reply to topics in this forum
You cannot edit your posts in this forum
You cannot delete your posts in this forum
You cannot vote in polls in this forum
You cannot attach files in this forum
You cannot download files in this forum