Today is a free download without charge Download

Карамазов Драмс - Leeбатут Leeбатам (клип) [2013, punk, HDCam]

Reply to topic
 
Author
Message

Omen ®

Longevity: 8 years 4 months

Posts: 181087

Торрент-статистика

Post 21-May-2013 04:59

[Quote]

Карамазов Драмс - Leeбатут Leeбатам (клип) [2013, punk, HDCam]
Жанр: punk
Продолжительность: 03:57
Год выпуска: 2013
Описание: Весёлый индейско-конкистадорский клип смоленских панков, соображённый могилёвскими собратьями по дурости в прикол и назидание.
Курили: вождь Орлиный Пах, Волшебная Дудка, Рваная Струна, скво Красно Перо, Ольехус де Попоу. И (по кропалику) Абармот, Волос и Симбад.
съёмка, монтаж - Абармот
идея - Ким, Абармот
спасибо Артёму и клубу исторической реконструкции "Maris Stella",
Маугли, Мэлику, Тинке, Ане И. и Юле П., Юле В., дяде Валере
и особенно Ире.
Самиздательство "Завод Абармот", Могилёв, май 2013 г.
Качество: HDCam
Контейнер: MP4
Видео кодек: H.264
Аудио кодек: AAC
Видео: MP4, 1920x1080, 16:9, 7593 Кбит/сек, 25 fps
Аудио: AAC, 128 kbps, 44.1 KHz, 2 ch

Отчёт MediaInfo / BDInfo

Формат : MPEG-4Профиль формата : Base Media / Version 2Идентификатор кодека : mp42Размер файла : 218 МбайтПродолжительность : 3 м. 57 с.Режим общего битрейта : ПеременныйОбщий поток : 7726 Кбит/секДата кодирования : UTC 2013-05-20 12:41:34Дата пометки : UTC 2013-05-20 12:41:34©TIM : 00:00:00:00©TSC : 25©TSZ : 1
ВидеоИдентификатор : 1Формат : AVCФормат/Информация : Advanced Video CodecПрофиль формата : [email protected]Параметр CABAC формата : ДаПараметр ReFrames формата : 3 кадраИдентификатор кодека : avc1Идентификатор кодека/Информация : Advanced Video CodingПродолжительность : 3 м. 57 с.Вид битрейта : ПостоянныйБитрейт : 7593 Кбит/секНоминальный битрейт : 8000 Кбит/секШирина : 1920 пикселейВысота : 1080 пикселейСоотношение сторон : 16:9Режим частоты кадров : ПостоянныйЧастота кадров : 25,000 кадров/секСтандарт вещания : PALЦветовое пространство : YUVСубдискретизация насыщенности : 4:2:0Битовая глубина : 8 битТип развёртки : ПрогрессивнаяБит/(Пиксели*Кадры) : 0.146Размер потока : 215 Мбайт (98%)Язык : EnglishДата кодирования : UTC 2013-05-20 12:41:34Дата пометки : UTC 2013-05-20 12:41:34
АудиоИдентификатор : 2Формат : AACФормат/Информация : Advanced Audio CodecПрофиль формата : LCИдентификатор кодека : 40Продолжительность : 3 м. 57 с.Продолжительность оригинала : 3 м. 57 с.Вид битрейта : ПеременныйБитрейт : 126 Кбит/секМаксимальный битрейт : 201 Кбит/секКаналы : 2 каналаРасположение каналов : Front: L RЧастота : 44,1 КГцМетод сжатия : С потерямиРазмер потока : 3,55 Мбайт (2%)Размер потока оригинала : 3,55 Мбайт (2%)Язык : EnglishДата кодирования : UTC 2013-05-20 12:41:34Дата пометки : UTC 2013-05-20 12:41:34

Скриншоты

Other forum [Profile] [PM]
Display posts from previous:    
Reply to topic

The time now is: Today 08:46

All times are GMT + 3 Hours



You cannot post new topics in this forum
You cannot reply to topics in this forum
You cannot edit your posts in this forum
You cannot delete your posts in this forum
You cannot vote in polls in this forum
You cannot attach files in this forum
You cannot download files in this forum