Today is a free download without charge Download

Тайная любовница / Une vieille maitresse (Катрин Брийа / Catherine Breillat) [2007, Франция, Италия, Драма, мелодрама, HDTV] MVO

Reply to topic
 
Author
Message

Omen ®

Longevity: 8 years 5 months

Posts: 181087

Торрент-статистика

Post 21-May-2013 00:57

[Quote]

Тайная любовница / Une vieille maitresse
Страна: Франция, Италия
Жанр: Драма, мелодрама
Год выпуска: 2007
Продолжительность: 01:49:13
Перевод: Профессиональный (многоголосый закадровый)
Cубтитры: нет
Оригинальная аудиодорожка: нет
Режиссер: Катрин Брийа / Catherine Breillat
В ролях: Азия Ардженто, Анн Парийо, Фу'ад Аи Атту, Амира Казар, Лио, Мишель Лонсдаль, Роксана Мескида, Йоланда Моро, Сара Прэтт, Клод Саррот, Жан-Филипп Тесс
Описание: Маркиза Флер решает выдать свою внучку, жемчужину знатного аристократического рода, за дворянина Рино де Мариньи. Тот искренне влюблен в прелестное создание, но вместе с тем не пропускает ни одной красивой юбки. Маркиза узнает тайну Рино: этот неисправимый донжуан является тайным любовником и жертвой скандальной куртизанки, дочери герцогини и тореадора. Удастся ли разуму Рино одержать победу над его страстями? Сохранит ли Мариньи верность невесте?
Доп информация: Раздаю до первых 3-х скачавших.
Качество видео: HDTV
Формат видео: MKV
Видео: 1920x1080, 25 fps, H264 (AVC), 6466 kbps
Аудио: 48 kHz, MP2, 2 ch, 192 kbps

MediaInfo

Общее
Уникальный идентификатор : 239682689944518961809028817510841226980 (0xB45134FC16489A029252F859D0A496E4)
Полное имя : F:\Temp\Тайная любовница.mkv
Формат : Matroska
Версия формата : Version 4 / Version 2
Размер файла : 5,18 Гбайт
Продолжительность : 1 ч. 49 м.
Общий поток : 6793 Кбит/сек
Дата кодирования : UTC 2010-02-22 21:41:31
Программа кодирования : mkvmerge v5.9.0 ('On The Loose') built on Dec 9 2012 15:37:01
Библиотека кодирования : libebml v1.3.0 + libmatroska v1.4.0
Видео
Идентификатор : 1
Формат : AVC
Формат/Информация : Advanced Video Codec
Профиль формата : [email protected]
Параметр CABAC формата : Да
Параметр ReFrames формата : 3 кадра
Идентификатор кодека : V_MPEG4/ISO/AVC
Продолжительность : 1 ч. 49 м.
Битрейт : 6466 Кбит/сек
Ширина : 1920 пикселей
Высота : 1080 пикселей
Соотношение сторон : 16:9
Режим частоты кадров : Постоянный
Частота кадров : 25,000 кадров/сек
Стандарт вещания : Component
Цветовое пространство : YUV
Субдискретизация насыщенности : 4:2:0
Битовая глубина : 8 бит
Тип развёртки : Чересстрочная
Порядок развёртки : Верхнее поле первое
Бит/(Пиксели*Кадры) : 0.125
Размер потока : 4,93 Гбайт (95%)
Default : Да
Forced : Нет
Основные цвета : BT.709
Характеристики трансфера : BT.709
Коэффициенты матрицы : BT.709
Аудио
Идентификатор : 2
Формат : MPEG Audio
Версия формата : Version 1
Профиль формата : Layer 2
Идентификатор кодека : A_MPEG/L2
Идентификатор кодека/Подсказка : MP2
Продолжительность : 1 ч. 49 м.
Вид битрейта : Постоянный
Битрейт : 192 Кбит/сек
Каналы : 2 канала
Частота : 48,0 КГц
Метод сжатия : С потерями
Размер потока : 150 Мбайт (3%)
Язык : Russian
Default : Да
Forced : Нет

Скриншот c названием фильма

Скриншоты

Other forum [Profile] [PM]
Display posts from previous:    
Reply to topic

The time now is: Today 00:08

All times are GMT + 3 Hours



You cannot post new topics in this forum
You cannot reply to topics in this forum
You cannot edit your posts in this forum
You cannot delete your posts in this forum
You cannot vote in polls in this forum
You cannot attach files in this forum
You cannot download files in this forum