Today is a free download without charge Download

Леди из Шанхая / The Lady from Shanghai (Орсон Уэллс / Orson Welles) [1947, США, фильм-нуар, триллер, драма, криминал, детектив, WEB-DL 720p] 2x MVO + Sub (Rus, Eng) + Original Eng

Reply to topic
 
Author
Message

Omen ®

Longevity: 8 years 5 months

Posts: 181087

Торрент-статистика

Post 21-May-2013 00:57

[Quote]

Леди из Шанхая / The Lady from Shanghai
Страна: США
Жанр: фильм-нуар, триллер, драма, криминал, детектив
Год выпуска: 1947
Продолжительность: 01:27:34
Перевод: Профессиональный (многоголосый закадровый)
Cубтитры: русские, английские
Оригинальная аудиодорожка: английский-Режиссер: Орсон Уэллс / Orson Welles
В ролях: Рита Хейворт, Орсон Уэллс, Эверетт Слоун, Гленн Андерс, Тед де Корсия, Эрскин Сэнфорд, Гас Шиллинг, Карл Фрэнк, Луис Мэрилл, Эвелин Эллис
Описание: Фильм снят по роману Шервуда Кинга "Если я умру не проснувшись".
На пустынной ночной аллее нью-йоркского Сентрал Парка Майкл О`Хара расшвыривает бандитов, напавших на Розали Баннистер. Гигант с лицом ребёнка, безработный моряк, он привлекает её своей первобытной мощью, и она предлагает Майклу работу на яхте мужа, преуспевающего адвоката, искалеченного полиомелитом калеки. Сражённый наповал роковой блондинкой, О’Хара отправляется в плавание. В пути Гризби, деловой партнер Баннистера, обращается к Майклу с весьма загадочным предложением — помочь инсценировать его убийство, для того чтобы тот мог исчезнуть и получить огромную страховку. Гризби обещает заплатить $5000, с такими деньгами Майкл и Розали смогут бежать и начать новую жизнь. Майкл соглашается и… практически подписывает себе смертный приговор.
IMDb || КиноПоиск-Тип релиза: WEB-DL 720p [The.Lady.from.Shanghai.1947.720p.WEB-DL.AAC2.0.H.264-GABE]
Контейнер: MKV
Видео: H.264/AVC, 966x720 at 23.976 fps, ~4000 kbps
Аудио#1: Russian: 48 kHz, AC3, 2/0 (L,R) ch, 192 kbps |Многоголосый закадровый|
Аудио#2: Russian: 48 kHz, AC3, 2/0 (L,R) ch, 192 kbps |Многоголосый закадровый|
Аудио#3: English: 48 kHz, English AAC 2.0 ch, 160 kbps
Формат субтитров: softsub (SRT)
Сэмпл

MediaInfo

Format : Matroska
Format version : Version 2
File size : 2.82 GiB
Duration : 1h 27mn
Overall bit rate : 4 613 Kbps
Encoded date : UTC 2013-05-20 23:37:04
Writing application : mkvmerge v5.0.1 ('Es ist Sommer') built on Nov 6 2011 16:23:40
Writing library : libebml v1.2.2 + libmatroska v1.3.0
Video
ID : 1
Format : AVC
Format/Info : Advanced Video Codec
Format profile : [email protected]
Format settings, CABAC : No
Format settings, ReFrames : 2 frames
Codec ID : V_MPEG4/ISO/AVC
Duration : 1h 27mn
Width : 966 pixels
Height : 720 pixels
Display aspect ratio : 4:3
Frame rate : 23.976 fps
Color space : YUV
Chroma subsampling : 4:2:0
Bit depth : 8 bits
Scan type : Progressive
Language : English
Default : Yes
Forced : No
Color primaries : BT.709-5, BT.1361, IEC 61966-2-4, SMPTE RP177
Transfer characteristics : BT.709-5, BT.1361
Matrix coefficients : BT.709-5, BT.1361, IEC 61966-2-4 709, SMPTE RP177
Audio #1
ID : 2
Format : AC-3
Format/Info : Audio Coding 3
Mode extension : CM (complete main)
Codec ID : A_AC3
Duration : 1h 27mn
Bit rate mode : Constant
Bit rate : 192 Kbps
Channel(s) : 2 channels
Channel positions : Front: L R
Sampling rate : 48.0 KHz
Bit depth : 16 bits
Compression mode : Lossy
Stream size : 120 MiB (4%)
Language : Russian
Default : Yes
Forced : No
Audio #2
ID : 3
Format : AC-3
Format/Info : Audio Coding 3
Mode extension : CM (complete main)
Codec ID : A_AC3
Duration : 1h 27mn
Bit rate mode : Constant
Bit rate : 192 Kbps
Channel(s) : 2 channels
Channel positions : Front: L R
Sampling rate : 48.0 KHz
Bit depth : 16 bits
Compression mode : Lossy
Stream size : 120 MiB (4%)
Language : Russian
Default : No
Forced : No
Audio #3
ID : 4
Format : AAC
Format/Info : Advanced Audio Codec
Format profile : LC
Codec ID : A_AAC
Duration : 1h 27mn
Channel(s) : 2 channels
Channel positions : Front: L R
Sampling rate : 48.0 KHz
Compression mode : Lossy
Language : English
Default : No
Forced : No
Text #1
ID : 5
Format : UTF-8
Codec ID : S_TEXT/UTF8
Codec ID/Info : UTF-8 Plain Text
Language : Russian
Default : No
Forced : No
Text #2
ID : 6
Format : UTF-8
Codec ID : S_TEXT/UTF8
Codec ID/Info : UTF-8 Plain Text
Language : English
Default : No
Forced : No
Menu
00:00:00.000 : en:1
00:07:19.000 : en:2
00:18:27.000 : en:3
00:22:15.000 : en:4
00:32:27.000 : en:5
00:39:06.000 : en:6
00:44:46.000 : en:7
00:48:23.000 : en:8
00:52:17.000 : en:9
00:55:02.000 : en:10
01:01:16.000 : en:11
01:05:56.000 : en:12
01:11:19.000 : en:13
01:18:02.000 : en:14
01:22:20.000 : en:15
01:24:38.000 : en:16

Скриншоты

Other forum [Profile] [PM]
Display posts from previous:    
Reply to topic

The time now is: Today 01:26

All times are GMT + 3 Hours



You cannot post new topics in this forum
You cannot reply to topics in this forum
You cannot edit your posts in this forum
You cannot delete your posts in this forum
You cannot vote in polls in this forum
You cannot attach files in this forum
You cannot download files in this forum