Today is a free download without charge Download

Джубал / Jubal (Дэлмер Дэйвс / Delmer Daves) [1956, США, вестерн, BDRip 720p] MVO + Sub Eng + Original Eng

Reply to topic
 
Author
Message

Omen ®

Longevity: 8 years 5 months

Posts: 181087

Торрент-статистика

Post 21-May-2013 00:57

[Quote]

Джубал / Jubal
Страна: США
Жанр: вестерн
Год выпуска: 1956
Продолжительность: 01:41:30
Перевод: Профессиональный (многоголосый закадровый)
Cубтитры: английские
Оригинальная аудиодорожка: английский-Режиссер: Дэлмер Дэйвс / Delmer Daves
В ролях: Гленн Форд, Эрнест Боргнайн, Род Стайгер, Валери Френч, Фелиция Фарр, Бэзил Руисдейл, Ноа Бири-мл., Чарльз Бронсон, Джон Диркес, Джек Элам, Роберт Бёртон
Описание: По роману Пола Уэллмана "Джубал Труп".
Странствующий ковбой Джубал Труп (Гленн Форд) случайно попадает на ранчо к ревнивому властолюбцу Шепу Хоргану (Эрнест Боргнин) и его молодой жене Мэй (Валери Френч), которая проявляет откровенные симпатии к незнакомцу. Ситуация осложняется тем, что в жену хозяина влюблен и один из его работников, злобный и коварный Пинки (Род Стайгер). Страсти накаляются, льется кровь...
IMDb || КиноПоиск-Тип релиза: BDRip 720p [CRiSC]
Контейнер: MKV
Видео: H.264/AVC, 1280x502 at 23.976 fps, ~6668 Kbps
Аудио#1: Russian: 48 kHz, AC3, 2/0 (L,R) ch, 192 kbps |Многоголосый закадровый|
Аудио#2: English: 48 kHz, AC3, 2/0 (L,R) ch, 192 kbps
Формат субтитров: softsub (SRT)
Сэмпл

MediaInfo

x264

x264 [info]: profile High, level 4.1
x264 [info]: frame I:971 Avg QP:16.64 size:120004
x264 [info]: frame P:28400 Avg QP:18.36 size: 60905
x264 [info]: frame B:116634 Avg QP:20.66 size: 27684
x264 [info]: consecutive B-frames: 1.2% 1.2% 3.3% 13.9% 16.2% 57.0% 4.8% 1.4% 0.9%
encoded 146005 frames, 6.86 fps, 6667.18 kb/s
Format : Matroska
Format version : Version 2
File size : 5.00 GiB
Duration : 1h 41mn
Overall bit rate : 7 053 Kbps
Encoded date : UTC 2013-05-20 21:21:20
Writing application : mkvmerge v5.0.1 ('Es ist Sommer') built on Nov 6 2011 16:23:40
Writing library : libebml v1.2.2 + libmatroska v1.3.0
Video
ID : 1
Format : AVC
Format/Info : Advanced Video Codec
Format profile : [email protected]
Format settings, CABAC : Yes
Format settings, ReFrames : 12 frames
Codec ID : V_MPEG4/ISO/AVC
Duration : 1h 41mn
Bit rate : 6 529 Kbps
Width : 1 280 pixels
Height : 502 pixels
Display aspect ratio : 2.550
Frame rate : 23.976 fps
Color space : YUV
Chroma subsampling : 4:2:0
Bit depth : 8 bits
Scan type : Progressive
Bits/(Pixel*Frame) : 0.424
Stream size : 4.63 GiB (93%)
Writing library : x264 core 132 r2309kMod 3b1f1f7
Encoding settings : cabac=1 / ref=12 / deblock=1:-3:-3 / analyse=0x3:0x133 / me=umh / subme=11 / psy=1 / fade_compensate=0.00 / psy_rd=0.90:0.00 / mixed_ref=1 / me_range=96 / chroma_me=1 / trellis=2 / 8x8dct=1 / cqm=0 / deadzone=21,11 / fast_pskip=0 / chroma_qp_offset=-2 / threads=12 / lookahead_threads=2 / sliced_threads=0 / nr=0 / decimate=0 / interlaced=0 / bluray_compat=0 / constrained_intra=0 / bframes=8 / b_pyramid=2 / b_adapt=2 / b_bias=0 / direct=3 / weightb=1 / open_gop=0 / weightp=2 / keyint=250 / keyint_min=23 / scenecut=40 / intra_refresh=0 / rc_lookahead=40 / rc=crf / mbtree=0 / crf=16.6000 / qcomp=0.65 / qpmin=0 / qpmax=69 / qpstep=4 / vbv_maxrate=50000 / vbv_bufsize=62500 / crf_max=0.0 / nal_hrd=none / ip_ratio=1.40 / pb_ratio=1.30 / aq=1:0.70
Language : English
Default : Yes
Forced : No
Color primaries : BT.709-5, BT.1361, IEC 61966-2-4, SMPTE RP177
Transfer characteristics : BT.709-5, BT.1361
Matrix coefficients : BT.709-5, BT.1361, IEC 61966-2-4 709, SMPTE RP177
Audio #1
ID : 2
Format : AC-3
Format/Info : Audio Coding 3
Mode extension : CM (complete main)
Codec ID : A_AC3
Duration : 1h 41mn
Bit rate mode : Constant
Bit rate : 192 Kbps
Channel(s) : 2 channels
Channel positions : Front: L R
Sampling rate : 48.0 KHz
Bit depth : 16 bits
Compression mode : Lossy
Stream size : 139 MiB (3%)
Language : Russian
Default : Yes
Forced : No
Audio #2
ID : 3
Format : AC-3
Format/Info : Audio Coding 3
Mode extension : CM (complete main)
Codec ID : A_AC3
Duration : 1h 41mn
Bit rate mode : Constant
Bit rate : 192 Kbps
Channel(s) : 2 channels
Channel positions : Front: L R
Sampling rate : 48.0 KHz
Bit depth : 16 bits
Compression mode : Lossy
Stream size : 139 MiB (3%)
Language : English
Default : No
Forced : No
Text
ID : 4
Format : UTF-8
Codec ID : S_TEXT/UTF8
Codec ID/Info : UTF-8 Plain Text
Language : English
Default : No
Forced : No
Menu
00:00:00.000 : en:00:00:00.000
00:01:35.095 : en:00:01:35.095
00:06:08.785 : en:00:06:08.785
00:10:29.128 : en:00:10:29.128
00:12:54.357 : en:00:12:54.357
00:14:13.770 : en:00:14:13.770
00:19:00.723 : en:00:19:00.723
00:21:07.391 : en:00:21:07.391
00:25:57.931 : en:00:25:57.931
00:29:08.330 : en:00:29:08.330
00:33:00.979 : en:00:33:00.979
00:37:03.721 : en:00:37:03.721
00:42:55.698 : en:00:42:55.698
00:45:52.708 : en:00:45:52.708
00:52:32.733 : en:00:52:32.733
00:55:33.330 : en:00:55:33.330
00:58:20.497 : en:00:58:20.497
01:00:15.320 : en:01:00:15.320
01:04:06.259 : en:01:04:06.259
01:07:11.611 : en:01:07:11.611
01:11:16.481 : en:01:11:16.481
01:16:54.819 : en:01:16:54.819
01:20:02.006 : en:01:20:02.006
01:24:12.130 : en:01:24:12.130
01:28:25.884 : en:01:28:25.884
01:35:37.440 : en:01:35:37.440
01:38:39.038 : en:01:38:39.038

Скриншоты

CRiSC vs Source
Other forum [Profile] [PM]
Display posts from previous:    
Reply to topic

The time now is: Today 19:28

All times are GMT + 3 Hours



You cannot post new topics in this forum
You cannot reply to topics in this forum
You cannot edit your posts in this forum
You cannot delete your posts in this forum
You cannot vote in polls in this forum
You cannot attach files in this forum
You cannot download files in this forum