Today is a free download without charge Download

Че: Часть вторая / Che: Part Two (Стивен Содерберг / Steven Soderbergh) [2008, Испания, Франция, США, драма, военный, биография, история, BDRip 720p] MVO + DVO + Original (Spa) + Sub (Rus, Eng)

Reply to topic
 
Author
Message

Omen ®

Longevity: 8 years 5 months

Posts: 181087

Торрент-статистика

Post 21-May-2013 00:57

[Quote]

Че: Часть вторая / Che: Part Two
Страна: Испания, Франция, США
Жанр: драма, военный, биография, история
Год выпуска: 2008
Продолжительность: 02:15:04
Перевод 1: Профессиональный (многоголосый закадровый) [now ru]
Перевод 2: Любительский (двухголосый закадровый)
Cубтитры: русские, английские
Оригинальная аудиодорожка: испанский
Режиссер: Стивен Содерберг / Steven Soderbergh
В ролях: Бенисио Дель Торо, Демиан Бишир, Родриго Санторо, Каталина Сандино Морено, Мария Д. Соса, Рауль Белтран, Рауль «Питин» Гомез, Пати М. Бельотт, Отелло Ренсоли, Франка Потенте, Лу Даймонд Филлипс, Марк-Андре Гронден, Мэтт Дэймон
Описание: Че Гевара. Рождение легенды... История простого аргентинского врача, ставшего лидером освободительного движения, команданте Кубинского переворота, кумиром бунтующего духа молодежи многих поколений, символом революционной романтики.
Сэмпл: http://multi-up.com/867532
Тип релиза: BDRip 720p |REVEiLLE|
Контейнер: MKV
Видео: AVC, 1280x720p (16:9), 23.976 fps, 5414 kbps, 0.245 bpp
Аудио 1: Русский AC3, 44.1 kHz, 192 kbps, 2 ch |Профессиональный многоголосый закадровый, now ru|
Аудио 2: Русский AC3 5.1, 48 kHz, 448 kbps, 16 bit |Любительский двухголосый закадровый|
Аудио 3: Испанский DTS 5.1, 48 kHz, 1509 kbps, 24 bit |Оригинал|
Формат субтитров: softsub (SRT)

MediaInfo

Общее
Уникальный идентификатор : 187689414975958809133332442461006968696 (0x8D33AA9CC5FD0387996964F04127B778)
Полное имя : Che.Chast.vtoraja.2008.P.BDRip.720p.mkv
Формат : Matroska
Версия формата : Version 4 / Version 2
Размер файла : 7,14 Гбайт
Продолжительность : 2 ч. 15 м.
Общий поток : 7566 Кбит/сек
Дата кодирования : UTC 2013-05-20 18:43:01
Программа кодирования : mkvmerge v6.2.0 ('Promised Land') built on Apr 28 2013 12:22:01
Библиотека кодирования : libebml v1.3.0 + libmatroska v1.4.0
Видео
Идентификатор : 1
Формат : AVC
Формат/Информация : Advanced Video Codec
Профиль формата : [email protected]
Параметр CABAC формата : Да
Параметр ReFrames формата : 5 кадров
Идентификатор кодека : V_MPEG4/ISO/AVC
Продолжительность : 2 ч. 15 м.
Битрейт : 5414 Кбит/сек
Ширина : 1280 пикселей
Высота : 720 пикселей
Соотношение сторон : 16:9
Режим частоты кадров : Постоянный
Частота кадров : 23,976 кадра/сек
Цветовое пространство : YUV
Субдискретизация насыщенности : 4:2:0
Битовая глубина : 8 бит
Тип развёртки : Прогрессивная
Бит/(Пиксели*Кадры) : 0.245
Размер потока : 4,97 Гбайт (70%)
Библиотека кодирования : x264 core 67 r1171 2c7cb4c
Настройки программы : cabac=1 / ref=5 / deblock=1:0:0 / analyse=0x3:0x133 / me=umh / subme=7 / psy_rd=1.0:0.0 / mixed_ref=1 / me_range=16 / chroma_me=1 / trellis=1 / 8x8dct=1 / cqm=0 / deadzone=21,11 / chroma_qp_offset=-2 / threads=3 / nr=0 / decimate=1 / mbaff=0 / bframes=3 / b_pyramid=1 / b_adapt=1 / b_bias=0 / direct=1 / wpredb=1 / keyint=250 / keyint_min=25 / scenecut=40 / rc=2pass / bitrate=5414 / ratetol=1.0 / qcomp=0.60 / qpmin=10 / qpmax=51 / qpstep=4 / cplxblur=20.0 / qblur=0.5 / ip_ratio=1.40 / pb_ratio=1.30 / aq=1:1.00
Язык : Spanish
Default : Да
Forced : Нет
Аудио #1
Идентификатор : 2
Формат : AC-3
Формат/Информация : Audio Coding 3
Расширение режима : CM (complete main)
Параметр Endianness формата : Big
Идентификатор кодека : A_AC3
Продолжительность : 2 ч. 15 м.
Вид битрейта : Постоянный
Битрейт : 192 Кбит/сек
Каналы : 2 канала
Расположение каналов : Front: L R
Частота : 44,1 КГц
Битовая глубина : 16 бит
Метод сжатия : С потерями
Задержка видео : 4 с. 256 мс.
Размер потока : 186 Мбайт (3%)
Заголовок : NOW
Язык : Russian
Default : Да
Forced : Нет
Аудио #2
Идентификатор : 3
Формат : AC-3
Формат/Информация : Audio Coding 3
Расширение режима : CM (complete main)
Параметр Endianness формата : Big
Идентификатор кодека : A_AC3
Продолжительность : 2 ч. 15 м.
Вид битрейта : Постоянный
Битрейт : 448 Кбит/сек
Каналы : 6 каналов
Расположение каналов : Front: L C R, Side: L R, LFE
Частота : 48,0 КГц
Битовая глубина : 16 бит
Метод сжатия : С потерями
Задержка видео : 10 мс.
Размер потока : 433 Мбайт (6%)
Заголовок : L2
Язык : Russian
Default : Нет
Forced : Нет
Аудио #3
Идентификатор : 4
Формат : DTS
Формат/Информация : Digital Theater Systems
Режим : 16
Параметр Endianness формата : Big
Идентификатор кодека : A_DTS
Продолжительность : 2 ч. 15 м.
Вид битрейта : Постоянный
Битрейт : 1509 Кбит/сек
Каналы : 6 каналов
Расположение каналов : Front: L C R, Side: L R, LFE
Частота : 48,0 КГц
Битовая глубина : 24 бит
Метод сжатия : С потерями
Размер потока : 1,42 Гбайт (20%)
Язык : Spanish
Default : Нет
Forced : Нет
Текст #1
Идентификатор : 5
Формат : UTF-8
Идентификатор кодека : S_TEXT/UTF8
Идентификатор кодека/Информация : UTF-8 Plain Text
Язык : Russian
Default : Нет
Forced : Нет
Текст #2
Идентификатор : 6
Формат : UTF-8
Идентификатор кодека : S_TEXT/UTF8
Идентификатор кодека/Информация : UTF-8 Plain Text
Язык : English
Default : Нет
Forced : Нет

Скриншоты

Other forum [Profile] [PM]
Display posts from previous:    
Reply to topic

The time now is: Today 10:14

All times are GMT + 3 Hours



You cannot post new topics in this forum
You cannot reply to topics in this forum
You cannot edit your posts in this forum
You cannot delete your posts in this forum
You cannot vote in polls in this forum
You cannot attach files in this forum
You cannot download files in this forum