Today is a free download without charge Download

Fleetwood Mac - 2013-04-08 Madison Square Garden, NY, USA [2013, Rock, Soft Rock, Classic Rock, HDCamRip]

Reply to topic
 
Author
Message

Omen ®

Longevity: 8 years 4 months

Posts: 181087

Торрент-статистика

Post 21-May-2013 00:57

[Quote]

Fleetwood Mac - 2013-04-08 MSG, New York, NY, USA
Жанр: Rock, Soft Rock, Classic Rock
Продолжительность: 02:24:12
Год выпуска: 2013
Описание:
April 8, 2013
Madison Square Garden
New York, NY, USA
The Band:
Stevie Nicks - Vocals
Lindsey Buckingham - Guitar
John McVie - Bass
Mick Fleetwood - Drums
Neale Heywood - Guitar
Brett Tuggle - Keyboards
Sharon Celoni - Background Vocals
Lori Nicks - Background Vocals
:

Треклист:

00 No Photography Announcement (cardioid source only)
01 Second Hand News
02 The Chain
03 Dreams
04 Sad Angel
05 Rhiannon ---> http://www.youtube.com/watch?feature=player_embedded&v=8zVeVCX70YE
06 Not That Funny
07 Tusk
08 Sisters Of The Moon
09 Sara
10 Big Love
11 Landslide
12 Never Going Back Again
13 Without You
14 Gypsy
15 Eyes OfTthe World
16 Gold Dust Woman
17 I'm So Afraid
18 Stand Back
19 Go Your Own Way
20 Encore Break 1
21 World Turning
22 Band Intros
23 Don't Stop
24 Encore Break 2
25 Silver Springs
26 Say Goodbye
Доп. информация:
Notes:
Last 4 minutes missing video because audience was getting up to leave early causing LL55 to shut it down.
The audio source runs for the last 4 minutes for completion purposes.
Mistake on a setting during authoring resulted in the 16/48 Audio instead of 24/96.
Big Thanks to LL55 & Drgiggles for taping & sharing and to JFI for putting this together
Special thanks to schmoe75
...enjoy!!!

*****************************************************************
Video Source: AUD (Tripod) > Sony HDR CX-700 > Firewire > HD > Sony Vegas > Adobe Encore > BD5
[High Definition Blu-Ray, 25.0 Mbs, 1440x1080]
Audio Source: Aud (4 channels rendered down to 2 channel)
CA-14 omni's (binaural) -> CA9100 -> 6" GAKables Mini starquad cable -> Tascam DR-2d (Line In, 24/96)
CA-14 cardioids (XY, tight) -> CA-UBB -> Tascam DR-2d (Mic In, 24/96)
Transfer: Kingston 16GB Class 10 SDHC -> HDD
Audio software: REAPER v4.2 (rendering 4 channels to 2 channels only) -> wav's (24/96) -> CDWAV -> TLH -> Flac24
* Dioxit Gold used on all connectors and gold tipped terminals before recording.
Recorded and transferred by Drgiggles1
Recorded from the sweet spot. Section E, Row 8, Seat 11 (dead center)
[LPCM, 1.5 Mbs, 16 Bit, 48 kHz]
******************************************************************
Video: Taped by LazyLightning55
Audio: Taped by Drgiggles1
Sync, Edit, Author: JFI Productions
Качество: HDCamRip
Контейнер: BDAV
Видео кодек: MPEG2
Аудио кодек: PCM
Видео: MPEG2 1440x1080 (16:9) 29.97fps 25000kbps
Аудио: LPCM 48000Hz stereo 1536kbps

Отчёт MediaInfo / BDInfo

GeneralID : 0 (0x0)Complete name : H:\FleetwoodMac2013-04-08MSG.1cam.aud24.bluray\BDMV\STREAM\00000.m2tsFormat : BDAVFormat/Info : Blu-ray VideoFile size : 21.5 GiBDuration : 2h 24mnOverall bit rate mode : VariableOverall bit rate : 21.4 MbpsMaximum Overall bit rate : 48.0 Mbps
VideoID : 4113 (0x1011)Menu ID : 1 (0x1)Format : MPEG VideoFormat version : Version 2Format profile : [email protected] settings, BVOP : YesFormat settings, Matrix : DefaultFormat settings, GOP : M=3, N=12Codec ID : 2Duration : 2h 24mnBit rate mode : VariableBit rate : 19.0 MbpsMaximum bit rate : 25.0 MbpsWidth : 1 440 pixelsHeight : 1 080 pixelsDisplay aspect ratio : 16:9Frame rate : 29.970 fpsColor space : YUVChroma subsampling : 4:2:0Bit depth : 8 bitsScan type : InterlacedScan order : Top Field FirstCompression mode : LossyBits/(Pixel*Frame) : 0.407Time code of first frame : 00:00:00;00Time code source : Group of pictures headerStream size : 19.1 GiB (89%)
AudioID : 4352 (0x1100)Menu ID : 1 (0x1)Format : PCMFormat settings, Endianness : BigFormat settings, Sign : SignedMuxing mode : Blu-rayCodec ID : 128Duration : 2h 24mnBit rate mode : ConstantBit rate : 1 536 KbpsChannel(s) : 2 channelsChannel positions : Front: L RSampling rate : 48.0 KHzBit depth : 16 bitsDelay relative to video : -67msStream size : 1.55 GiB (7%)

Скриншоты

Other forum [Profile] [PM]
Display posts from previous:    
Reply to topic

The time now is: Today 17:24

All times are GMT + 3 Hours



You cannot post new topics in this forum
You cannot reply to topics in this forum
You cannot edit your posts in this forum
You cannot delete your posts in this forum
You cannot vote in polls in this forum
You cannot attach files in this forum
You cannot download files in this forum