Сегодня идет свободное скачивание без начисления Download

Wolfgang Schmid - Wolfhound (Vinyl rip) (1975) [MP3|320 кб/с]<Fusion, Jazz-Rock, Funk>

Ответить на тему
 
Автор
Сообщение

UndegraundMen ®

Стаж: 5 лет 9 месяцев

Сообщений: 25860

Торрент-статистика

Пост 21-Май-2013 00:03

[Цитировать]

Wolfgang Schmid - Wolfhound (Vinyl rip) (1975)- Год: 1975
Жанр: Fusion, Jazz-Rock, Funk
Продолжительность: 00:34:02
Кодек: MP3
Битрейт: 320 кб/с
Тип битрейта: CBR
Трек лист:
1. Huge Cucumber (2:57)
2. Keep Changing (2:30)
3. Macedonian Tiddle-Taddle (5:28)
4. Wolfhound's Roundabout (6:20)
5. Going Easy (3:34)
6. Nowhere And Now-Here (3:44)
7. Circling (4:15)
8. Some Kind of Song (5:06)

Mediainfo

Полное имя : D:\MEDIA\Audio\Wolfgang Schmid - Wolfhound (Vinyl) 1975 [mp3]\01 - Huge Cucumber.mp3
Формат : MPEG Audio
Размер файла : 6,82 Мбайт
Продолжительность : 2 м. 57 с.
Режим общего битрейта : Постоянный
Общий поток : 320 Кбит/сек
Альбом : Wolfhound
Трек : Huge Cucumber
Трек/Положение : 1
Исполнитель : Wolfgang Schmid
Кодирование произвёл : dBpoweramp Release 14
Жанр : Jazz+Funk
Дата записи : 1975
Библиотека кодирования : LAME3.99r
Обложка : Yes
Тип обложки : Cover (front)
MIME-тип обложки : image/jpeg
Аудио
Формат : MPEG Audio
Версия формата : Version 1
Профиль формата : Layer 3
Режим : Joint stereo
Продолжительность : 2 м. 57 с.
Вид битрейта : Постоянный
Битрейт : 320 Кбит/сек
Каналы : 2 канала
Частота : 44,1 КГц
Метод сжатия : С потерями
Размер потока : 6,77 Мбайт (99%)
Библиотека кодирования : LAME3.99r
Настройки программы : -m j -V 4 -q 3 -lowpass 20.5
Общее
Полное имя : D:\MEDIA\Audio\Wolfgang Schmid - Wolfhound (Vinyl) 1975 [mp3]\02 - Keep Changing.mp3
Формат : MPEG Audio
Размер файла : 5,80 Мбайт
Продолжительность : 2 м. 30 с.
Режим общего битрейта : Постоянный
Общий поток : 320 Кбит/сек
Альбом : Wolfhound
Трек : Keep Changing
Трек/Положение : 2
Исполнитель : Wolfgang Schmid
Кодирование произвёл : dBpoweramp Release 14
Жанр : Jazz+Funk
Дата записи : 1975
Библиотека кодирования : LAME3.99r
Обложка : Yes
Тип обложки : Cover (front)
MIME-тип обложки : image/jpeg
Аудио
Формат : MPEG Audio
Версия формата : Version 1
Профиль формата : Layer 3
Режим : Joint stereo
Продолжительность : 2 м. 30 с.
Вид битрейта : Постоянный
Битрейт : 320 Кбит/сек
Каналы : 2 канала
Частота : 44,1 КГц
Метод сжатия : С потерями
Размер потока : 5,74 Мбайт (99%)
Библиотека кодирования : LAME3.99r
Настройки программы : -m j -V 4 -q 3 -lowpass 20.5
Общее
Полное имя : D:\MEDIA\Audio\Wolfgang Schmid - Wolfhound (Vinyl) 1975 [mp3]\03 - Macedonian Tiddle-Taddle.mp3
Формат : MPEG Audio
Размер файла : 12,6 Мбайт
Продолжительность : 5 м. 28 с.
Режим общего битрейта : Постоянный
Общий поток : 320 Кбит/сек
Альбом : Wolfhound
Трек : Macedonian Tiddle-Taddle
Трек/Положение : 3
Исполнитель : Wolfgang Schmid
Кодирование произвёл : dBpoweramp Release 14
Жанр : Jazz+Funk
Дата записи : 1975
Библиотека кодирования : LAME3.99r
Обложка : Yes
Тип обложки : Cover (front)
MIME-тип обложки : image/jpeg
Аудио
Формат : MPEG Audio
Версия формата : Version 1
Профиль формата : Layer 3
Режим : Joint stereo
Продолжительность : 5 м. 28 с.
Вид битрейта : Постоянный
Битрейт : 320 Кбит/сек
Каналы : 2 канала
Частота : 44,1 КГц
Метод сжатия : С потерями
Размер потока : 12,5 Мбайт (100%)
Библиотека кодирования : LAME3.99r
Настройки программы : -m j -V 4 -q 3 -lowpass 20.5
Общее
Полное имя : D:\MEDIA\Audio\Wolfgang Schmid - Wolfhound (Vinyl) 1975 [mp3]\04 - Wolfhound's Roundabout.mp3
Формат : MPEG Audio
Размер файла : 14,6 Мбайт
Продолжительность : 6 м. 20 с.
Режим общего битрейта : Постоянный
Общий поток : 320 Кбит/сек
Альбом : Wolfhound
Трек : Wolfhound's Roundabout
Трек/Положение : 4
Исполнитель : Wolfgang Schmid
Кодирование произвёл : dBpoweramp Release 14
Жанр : Jazz+Funk
Дата записи : 1975
Библиотека кодирования : LAME3.99r
Обложка : Yes
Тип обложки : Cover (front)
MIME-тип обложки : image/jpeg
Аудио
Формат : MPEG Audio
Версия формата : Version 1
Профиль формата : Layer 3
Режим : Joint stereo
Продолжительность : 6 м. 21 с.
Вид битрейта : Постоянный
Битрейт : 320 Кбит/сек
Каналы : 2 канала
Частота : 44,1 КГц
Метод сжатия : С потерями
Размер потока : 14,5 Мбайт (100%)
Библиотека кодирования : LAME3.99r
Настройки программы : -m j -V 4 -q 3 -lowpass 20.5
Общее
Полное имя : D:\MEDIA\Audio\Wolfgang Schmid - Wolfhound (Vinyl) 1975 [mp3]\05 - Going Easy.mp3
Формат : MPEG Audio
Размер файла : 8,26 Мбайт
Продолжительность : 3 м. 34 с.
Режим общего битрейта : Постоянный
Общий поток : 320 Кбит/сек
Альбом : Wolfhound
Трек : Going Easy
Трек/Положение : 5
Исполнитель : Wolfgang Schmid
Кодирование произвёл : dBpoweramp Release 14
Жанр : Jazz+Funk
Дата записи : 1975
Библиотека кодирования : LAME3.99r
Обложка : Yes
Тип обложки : Cover (front)
MIME-тип обложки : image/jpeg
Аудио
Формат : MPEG Audio
Версия формата : Version 1
Профиль формата : Layer 3
Режим : Joint stereo
Продолжительность : 3 м. 35 с.
Вид битрейта : Постоянный
Битрейт : 320 Кбит/сек
Каналы : 2 канала
Частота : 44,1 КГц
Метод сжатия : С потерями
Размер потока : 8,20 Мбайт (99%)
Библиотека кодирования : LAME3.99r
Настройки программы : -m j -V 4 -q 3 -lowpass 20.5
Общее
Полное имя : D:\MEDIA\Audio\Wolfgang Schmid - Wolfhound (Vinyl) 1975 [mp3]\06 - Nowhere And Now-Here.mp3
Формат : MPEG Audio
Размер файла : 8,62 Мбайт
Продолжительность : 3 м. 44 с.
Режим общего битрейта : Постоянный
Общий поток : 320 Кбит/сек
Альбом : Wolfhound
Трек : Nowhere And Now-Here
Трек/Положение : 6
Исполнитель : Wolfgang Schmid
Кодирование произвёл : dBpoweramp Release 14
Жанр : Jazz+Funk
Дата записи : 1975
Библиотека кодирования : LAME3.99r
Обложка : Yes
Тип обложки : Cover (front)
MIME-тип обложки : image/jpeg
Аудио
Формат : MPEG Audio
Версия формата : Version 1
Профиль формата : Layer 3
Режим : Joint stereo
Продолжительность : 3 м. 44 с.
Вид битрейта : Постоянный
Битрейт : 320 Кбит/сек
Каналы : 2 канала
Частота : 44,1 КГц
Метод сжатия : С потерями
Размер потока : 8,56 Мбайт (99%)
Библиотека кодирования : LAME3.99r
Настройки программы : -m j -V 4 -q 3 -lowpass 20.5
Общее
Полное имя : D:\MEDIA\Audio\Wolfgang Schmid - Wolfhound (Vinyl) 1975 [mp3]\07 - Circling.mp3
Формат : MPEG Audio
Размер файла : 9,81 Мбайт
Продолжительность : 4 м. 15 с.
Режим общего битрейта : Постоянный
Общий поток : 320 Кбит/сек
Альбом : Wolfhound
Трек : Circling
Трек/Положение : 7
Исполнитель : Wolfgang Schmid
Кодирование произвёл : dBpoweramp Release 14
Жанр : Jazz+Funk
Дата записи : 1975
Библиотека кодирования : LAME3.99r
Обложка : Yes
Тип обложки : Cover (front)
MIME-тип обложки : image/jpeg
Аудио
Формат : MPEG Audio
Версия формата : Version 1
Профиль формата : Layer 3
Режим : Joint stereo
Продолжительность : 4 м. 15 с.
Вид битрейта : Постоянный
Битрейт : 320 Кбит/сек
Каналы : 2 канала
Частота : 44,1 КГц
Метод сжатия : С потерями
Размер потока : 9,75 Мбайт (99%)
Библиотека кодирования : LAME3.99r
Настройки программы : -m j -V 4 -q 3 -lowpass 20.5
Общее
Полное имя : D:\MEDIA\Audio\Wolfgang Schmid - Wolfhound (Vinyl) 1975 [mp3]\08 - Some Kind of Song.mp3
Формат : MPEG Audio
Размер файла : 11,8 Мбайт
Продолжительность : 5 м. 6 с.
Режим общего битрейта : Постоянный
Общий поток : 320 Кбит/сек
Альбом : Wolfhound
Трек : Some Kind of Song
Трек/Положение : 8
Исполнитель : Wolfgang Schmid
Кодирование произвёл : dBpoweramp Release 14
Жанр : Jazz+Funk
Дата записи : 1975
Библиотека кодирования : LAME3.99r
Обложка : Yes
Тип обложки : Cover (front)
MIME-тип обложки : image/jpeg
Аудио
Формат : MPEG Audio
Версия формата : Version 1
Профиль формата : Layer 3
Режим : Joint stereo
Продолжительность : 5 м. 7 с.
Вид битрейта : Постоянный
Битрейт : 320 Кбит/сек
Каналы : 2 канала
Частота : 44,1 КГц
Метод сжатия : С потерями
Размер потока : 11,7 Мбайт (100%)
Библиотека кодирования : LAME3.99r
Настройки программы : -m j -V 4 -q 3 -lowpass 20.5

Спектрограммы

     

Дополнительная информация&#58;

Немецкий бас гитарист, композитор, продюсер, родился 11 ноября 1948 в Штутгардте. Музыкальную карьеру начал в 1962 году в составе группы The Dynamites!, в которой он был руководителем, певцом и гитаристом.
Wikipedia:
http://de.wikipedia.org/wiki/Wolfgang_Schmid_(Musiker)
Время раздачи: С 08:00 до 24:00
Вне форума [Профиль] [ЛС]
Показать сообщения:    
Ответить на тему

Текущее время: Сегодня 17:37

Часовой пояс: GMT + 3



Вы не можете начинать темы
Вы не можете отвечать на сообщения
Вы не можете редактировать свои сообщения
Вы не можете удалять свои сообщения
Вы не можете голосовать в опросах
Вы не можете прикреплять файлы к сообщениям
Вы не можете скачивать файлы