Today is a free download without charge Download

Техасская резня бензопилой 3D / Texas Chainsaw 3D ( Джон Льюсенхоп ) (2013, ужасы, триллер ) BDRip [720p] [Line]

Reply to topic
 
Author
Message

Витек1 ®

Gender:

Longevity: 8 years 3 months

Posts: 451

Location: Житомир

Торрент-статистика

Post 20-May-2013 21:14

[Quote]

Техасская резня бензопилой 3D / Texas Chainsaw 3D - Русское название: Техасская резня бензопилой 3D
Оригинальное название: Texas Chainsaw 3D
Год выпуска: 2013
Производство: США / Leatherface Productions, Lionsgate, Mainline Pictures Inc., Millennium Films, Nu-Image Films, Twisted Chainsaw Pictures
Жанр: ужасы, триллер
Перевод: Дублированный [Чистый звук]
Субтитры: Русские, английские
Вид субтитров: Вшитые отключаемые-Дата мировой премьеры: 3 января 2013
Дата российской премьеры: 7 февраля 2013, «Наше Кино»-Режиссер: Джон Льюсенхоп
Актеры: Александра Даддарио, Дэн Йеджер, Трей Сонгз, Скотт Иствуд, Таня Рэймонд, Шон Сайпос, Керам Малики-Санчес, Джеймс МакДональд, Том Бэрри, Пол Рэй-Описание фильма:
Местный шериф согласился организовать для Джеба Сойера, который и скрывался под Кожаным лицом, честный судебный процесс и предоставить ему адвоката. Однако его намерениям мешает мэр, который ведет за собой толпу людей, жаждущих линчевать кровавого маньяка. Когда ситуация начинает выходить из-под контроля, а горожане принимаются ладить петли для убийцы, кто-то бросает в дом Сойера бутылку с зажигательной смесью. Дом сгорает, а вместе с ним в огне гибнут и все, кто в нем находился, включая самого Джеба и его отца. Разумеется, спустя определенное время убийства с помощью бензопилы начинаются снова. Первое предположение шерифа — Джеб Сойер выжил и решил отомстить. Но он ли это на самом деле? И если нет, то кто?- -Продолжительность: 01:31:57
Качество видео: BDRip-Видеокодек: MPEG-4 AVC/H.264
Битрейт видео: ~4604 Кбит/с
Размер кадра: 1280x534
Аудио#1: Aнглийский (DTS, 6 ch, 1510 Кбит/с)
Аудио#2: Русский (AC3, 6 ch, 448 Кбит/с)

MediaInfo

Общее
Уникальный идентификатор : 210342636223317086239658654753872031267 (0x9E3E84A6AEE61858A63998F5CF462E23)
Полное имя : D:\Торрент раздача\Texas.Chainsaw.D.2013.BDRip.720p.mkv
Формат : Matroska
Версия формата : Version 2
Размер файла : 4,30 Гбайт
Продолжительность : 1 ч. 31 м.
Общий поток : 6694 Кбит/сек
Название фильма : UNIONGANG.tv
Дата кодирования : UTC 2013-05-16 13:55:13
Программа кодирования : mkvmerge v5.3.0 ('I could have danced') built on Feb 9 2012 10:38:07
Библиотека кодирования : libebml v1.2.3 + libmatroska v1.3.0
Видео
Идентификатор : 1
Формат : AVC
Формат/Информация : Advanced Video Codec
Профиль формата : [url=mailto:H[email protected]][email protected][/url]
Параметр CABAC формата : Да
Параметр ReFrames формата : 12 кадров
Идентификатор кодека : V_MPEG4/ISO/AVC
Продолжительность : 1 ч. 31 м.
Битрейт : 4604 Кбит/сек
Ширина : 1280 пикселей
Высота : 534 пикселя
Соотношение сторон : 2,40:1
Режим частоты кадров : Постоянный
Частота кадров : 23,976 кадра/сек
Цветовое пространство : YUV
Субдискретизация насыщенности : 4:2:0
Битовая глубина : 8 бит
Тип развёртки : Прогрессивная
Бит/(Пиксели*Кадры) : 0.281
Размер потока : 2,96 Гбайт (69%)
Заголовок : Texas.Chainsaw.2013.720p.BluRay.DTS.x264-HDWinG
Библиотека кодирования : x264 core 130 r2274+704+40 24c804d tMod+MixAQ [[email protected]:2:0 X86_64]
Настройки программы : cabac=1 / ref=12 / deblock=1:-3:-3 / analyse=0x3:0x113 / me=umh / subme=11 / psy=1 / fade_compensate=0.00 / psy_rd=1.05:0.00 / mixed_ref=1 / me_range=48 / chroma_me=1 / trellis=2 / 8x8dct=1 / cqm=0 / deadzone=21,11 / fast_pskip=0 / chroma_qp_offset=-2 / threads=36 / lookahead_threads=4 / sliced_threads=0 / nr=0 / decimate=0 / interlaced=0 / bluray_compat=0 / constrained_intra=0 / fgo=0 / bframes=8 / b_pyramid=2 / b_adapt=2 / b_bias=0 / direct=3 / weightb=1 / open_gop=0 / weightp=2 / keyint=240 / keyint_min=24 / scenecut=40 / intra_refresh=0 / rc=crf / mbtree=0 / crf=17.0000 / qcomp=0.72 / qpmin=0 / qpmax=69 / qpstep=4 / ip_ratio=1.25 / pb_ratio=1.20 / aq=4:0.90 / aq-sensitivity=10.00 / aq-ifactor=1.00 / aq-pfactor=1.00 / aq-bfactor=1.00 / aq2=0
Язык : English
Default : Да
Forced : Нет
Аудио #1
Идентификатор : 2
Формат : DTS
Формат/Информация : Digital Theater Systems
Режим : 16
Параметр Endianness формата : Big
Идентификатор кодека : A_DTS
Продолжительность : 1 ч. 31 м.
Вид битрейта : Постоянный
Битрейт : 1509 Кбит/сек
Каналы : 6 каналов
Расположение каналов : Front: L C R, Side: L R, LFE
Частота : 48,0 КГц
Битовая глубина : 24 бит
Метод сжатия : С потерями
Размер потока : 992 Мбайт (23%)
Язык : English
Default : Нет
Forced : Нет
Аудио #2
Идентификатор : 4
Формат : AC-3
Формат/Информация : Audio Coding 3
Расширение режима : CM (complete main)
Параметр Endianness формата : Big
Идентификатор кодека : A_AC3
Продолжительность : 1 ч. 31 м.
Вид битрейта : Постоянный
Битрейт : 448 Кбит/сек
Каналы : 6 каналов
Расположение каналов : Front: L C R, Side: L R, LFE
Частота : 48,0 КГц
Битовая глубина : 16 бит
Метод сжатия : С потерями
Размер потока : 295 Мбайт (7%)
Заголовок : Line
Язык : Russian
Default : Да
Forced : Нет
Текст #1
Идентификатор : 3
Формат : PGS
Идентификатор кодека : S_HDMV/PGS
Идентификатор кодека/Информация : The same subtitle format used on BDs/HD-DVDs
Язык : English
Default : Нет
Forced : Нет
Текст #2
Идентификатор : 5
Формат : UTF-8
Идентификатор кодека : S_TEXT/UTF8
Идентификатор кодека/Информация : UTF-8 Plain Text
Заголовок : Full
Язык : Russian
Default : Нет
Forced : Нет
Скриншоты:
         
         

_________________
Скачал сам, дай скачать другому!!!Не забудь сказать -
Other forum [Profile] [PM]

Dracula

Longevity: 7 years 5 months

Posts: 11216

Торрент-статистика

Post 02-Jan-2014 15:52 (after 7 months 12 days)

Топик был перенесен из форума Новинки (DVD, HD Video) в форум Зарубежное кино (HD Video)


kogesan
 
Display posts from previous:    
Reply to topic

The time now is: Today 10:04

All times are GMT + 3 Hours



You cannot post new topics in this forum
You cannot reply to topics in this forum
You cannot edit your posts in this forum
You cannot delete your posts in this forum
You cannot vote in polls in this forum
You cannot attach files in this forum
You cannot download files in this forum