Today is a free download without charge Download

Сироп / Syrup ( Арам Раппапорт ) (2012, Драма, Мелодрама, Комедия ) WEB-DLRip [H.264/720p-LQ]

Reply to topic
 
Author
Message

Витек1 ®

Gender:

Longevity: 8 years 3 months

Posts: 451

Location: Житомир

Торрент-статистика

Post 20-May-2013 17:23

[Quote]

Сироп / Syrup -«Идея на миллион долларов»- Русское название: Сироп
Оригинальное название: Syrup
Год выпуска: 2012
Производство: США / Lila 9th Productions, Windward Entertainment
Жанр: Драма, Мелодрама, Комедия-Описание фильма:
Молодой и амбициозный молодой человек, сотрудник крупной компании, производящей газированные напитки, придумывает блестящий план на миллион американских долларов. План заключается в разработке и продвижении нового напитка, который сделает его значительно богаче и продвинет на самую вершину карьерной лестницы. Однако на пути у осуществления этого великолепного плана есть одно «но» — для его воплощения молодой человек должен объединиться с коллегой по работе и научиться доверять ей, а также помириться со своим боссом, наладив с ним нормальные и доверительные рабочие отношения.-Режиссер: Арам Раппапорт
Продюсер: Камерон Дж. Ламб, Барри М. Осборн, Сьюзэн А. Стоувер
Актеры: Эмбер Хёрд, Бриттани Сноу, Келлан Латс, Шайло Фернандес, Тоби Хемингуэй, Рэйчел Дрэч, Джош Пэйс, Грег Пол, Майкл Тех, О-Лан Джонс-Продолжительность: 01:29:57
Перевод: Одноголосый закадровый (zamez)
Язык субтитров: Английские
Вид субтитров: Вшитые отключаемые- -Дата мировой премьеры: 22 ноября 2012
Дата российской премьеры: 1 ноября 2012, «Top Film Distribution»-Видеокодек: MPEG-4 AVC/H.264
Битрейт видео: ~3976 kb/s
Размер кадра: 1280x540
Качество видео: WEB-DLRip
Аудио#1: Русский - MP3, 128 kb/s (2 ch)
Аудио#2: Английский - AC3, 384 kb/s (6 ch)

MediaInfo

Общее
Уникальный идентификатор : 193466460095065521586872233681157073954 (0x918C48ED72AE2ED3BBE76DF79E07AC22)
Полное имя : D:\Торрент раздача\Syrup.2013.720p.WEB-DL.mkv
Формат : Matroska
Версия формата : Version 2
Размер файла : 2,88 Гбайт
Продолжительность : 1 ч. 29 м.
Общий поток : 4579 Кбит/сек
Дата кодирования : UTC 2013-05-19 19:23:13
Программа кодирования : mkvmerge v2.9.8 ('C'est le bon') built on Nov 20 2009 13:01:15
Библиотека кодирования : libebml v0.7.9 + libmatroska v0.8.1
Видео
Идентификатор : 1
Формат : AVC
Формат/Информация : Advanced Video Codec
Профиль формата : [url=mailto:[email protected]][email protected][/url]
Параметр CABAC формата : Нет
Параметр ReFrames формата : 2 кадра
Идентификатор кодека : V_MPEG4/ISO/AVC
Продолжительность : 1 ч. 29 м.
Битрейт : 3976 Кбит/сек
Ширина : 1280 пикселей
Высота : 540 пикселей
Соотношение сторон : 2,40:1
Режим частоты кадров : Постоянный
Частота кадров : 23,976 кадра/сек
Цветовое пространство : YUV
Субдискретизация насыщенности : 4:2:0
Битовая глубина : 8 бит
Тип развёртки : Прогрессивная
Бит/(Пиксели*Кадры) : 0.240
Размер потока : 2,50 Гбайт (87%)
Язык : English
Default : Нет
Forced : Нет
Основные цвета : BT.709
Характеристики трансфера : BT.709
Коэффициенты матрицы : BT.709
Аудио #1
Идентификатор : 2
Формат : MPEG Audio
Версия формата : Version 1
Профиль формата : Layer 3
Режим : Joint stereo
Идентификатор кодека : A_MPEG/L3
Идентификатор кодека/Подсказка : MP3
Продолжительность : 1 ч. 29 м.
Вид битрейта : Постоянный
Битрейт : 128 Кбит/сек
Каналы : 2 канала
Частота : 48,0 КГц
Метод сжатия : С потерями
Размер потока : 82,4 Мбайт (3%)
Язык : Russian
Default : Да
Forced : Нет
Аудио #2
Идентификатор : 3
Формат : AC-3
Формат/Информация : Audio Coding 3
Расширение режима : CM (complete main)
Параметр Endianness формата : Big
Идентификатор кодека : A_AC3
Продолжительность : 1 ч. 29 м.
Вид битрейта : Постоянный
Битрейт : 384 Кбит/сек
Каналы : 6 каналов
Расположение каналов : Front: L C R, Side: L R, LFE
Частота : 48,0 КГц
Битовая глубина : 16 бит
Метод сжатия : С потерями
Размер потока : 247 Мбайт (8%)
Язык : English
Default : Нет
Forced : Нет
Текст
Идентификатор : 4
Формат : UTF-8
Идентификатор кодека : S_TEXT/UTF8
Идентификатор кодека/Информация : UTF-8 Plain Text
Заголовок : CC
Язык : English
Default : Нет
Forced : Нет
Меню
00:00:00.000 : en:Chapter 1
00:04:15.000 : en:Chapter 2
00:12:35.000 : en:Chapter 3
00:21:27.000 : en:Chapter 4
00:30:23.000 : en:Chapter 5
00:40:03.000 : en:Chapter 6
00:51:11.000 : en:Chapter 7
01:01:40.000 : en:Chapter 8
01:11:07.000 : en:Chapter 9
01:21:41.000 : en:Chapter 10
01:24:58.000 : en:Chapter 11
Скриншоты:
         
         

_________________
Скачал сам, дай скачать другому!!!Не забудь сказать -
Other forum [Profile] [PM]
Display posts from previous:    
Reply to topic

The time now is: Today 11:17

All times are GMT + 3 Hours



You cannot post new topics in this forum
You cannot reply to topics in this forum
You cannot edit your posts in this forum
You cannot delete your posts in this forum
You cannot vote in polls in this forum
You cannot attach files in this forum
You cannot download files in this forum