Today is a free download without charge Download

Люди в черном 3 / Men in Black 3 (Барри Зонненфельд / Barry Sonnenfeld) [2012, США, фантастика, боевик, комедия, приключения, BDRip 720p] Dub (Rus, Ukr) + AVO (А. Гаврилов) + Original (Eng) + Subs (Rus, Eng)

Reply to topic
 
Author
Message

Omen ®

Longevity: 8 years 5 months

Posts: 181087

Торрент-статистика

Post 20-May-2013 04:39

[Quote]

Люди в черном 3 / Men in Black 3
Страна: США
Студия: Amblin Entertainment, Hemisphere Media Capital, Imagenation Abu Dhabi FZ, Media Magik Entertainment, Parkes/MacDonald Productions
Жанр: фантастика, боевик, комедия, приключения
Год выпуска: 2012
Продолжительность: 01:45:50
Перевод 1: Профессиональный (дублированный) [Blu-ray CEE]
Перевод 2: Авторский (одноголосый закадровый) [А. Гаврилов]
Оригинальная аудиодорожка: английская
Cубтитры: русские, английские
Режиссер: Барри Зонненфельд / Barry Sonnenfeld
В ролях: Уилл Смит, Джош Бролин, Томми Ли Джонс, Джемейн Клемент, Майкл Стулбарг, Эмма Томпсон, Элис Ив, Майк Колтер, Билл Хэйдер, Майкл Чернус, Николь Шерзингер, Дэвид Раш, Кион Янг, Кайен Мартин, Кларк Торелл, Адам Муччи, Том МакКомас, Дуглас Кросби, Вуди Кинг мл., Джек О`Коннелл, Тобиаш Сигал, Джон Шэйвер, Герритт Вэндэрмир, Александра О`Хара, Виолет О`Хара, Вэленс Томас, Хлоя Сонненфельд, Лэнни Флаэрти, Джонатан О`Хара, Рик Бэйкер, Джо Д`Онофрио, Джозеф Р. Ганнасколи, Кэти Фрейм, Кевин Таунли, Стефен Брайан Джонс, Тайлер Джон
Описание: Агент Джей узнает, что никакого защитного галактического щита, способного отразить иноземный удар, не существует. Агент Кей не построил его, потому что был убит в 1969 году. Агент Джей должен совершить путешествие во времени, чтобы спасти Землю и жизнь напарника.

Релиз: fanatus
Качество видео: BDRip 720p
Исходник: Blu-Ray Disc CEE 1080p [HDCLUB]
Контейнер: MKV
Видео: MPEG-4 AVC, 10000 kbps , 1280x694 (1.85:1), 23.976 fps, 0.470 bit/pixel
Аудио 1: русский (AC3, 6 ch, 48 kHz, 640 kbps) Dub
Аудио 2: русский (AC3, 6 ch, 48 kHz, 640 kbps) AVO (Gavrilov)
Аудио 3: украинский (AC3, 6 ch, 48 kHz, 640 kbps) Dub
Аудио 4: английский (AC3, 6 ch, 48 kHz, 640 kbps) Original
Формат субтитров: softsub (SRT)
Главы: есть

Доп. информация

В сборе средств на перевод Гаврилова учаcтвовали (пират.кa).

MediaInfo

General
Unique ID : 251588251178619357589813227190106105093 (0xBD462279157358DB9376DB5C0D2AA505)
Complete name : E:\Ljudi.v.chernom.3.2012.x264.BDRip.720p.fanatus.mkv
Format : Matroska
Format version : Version 2
File size : 9.29 GiB
Duration : 1h 45mn
Overall bit rate : 12.6 Mbps
Movie name : Men in Black 3 (2012) - fanatus
Encoded date : UTC 2013-05-19 19:13:22
Writing application : mkvmerge v3.4.0 ('Rapunzel') сборка от May 15 2010 09:38:20
Writing library : libebml v0.8.0 + libmatroska v0.9.0
Video
ID : 1
Format : AVC
Format/Info : Advanced Video Codec
Format profile : [email protected]
Format settings, CABAC : Yes
Format settings, ReFrames : 10 frames
Codec ID : V_MPEG4/ISO/AVC
Duration : 1h 45mn
Bit rate : 10 000 Kbps
Width : 1 280 pixels
Height : 694 pixels
Display aspect ratio : 1.85:1
Frame rate : 23.976 fps
Color space : YUV
Chroma subsampling : 4:2:0
Bit depth : 8 bits
Scan type : Progressive
Bits/(Pixel*Frame) : 0.470
Stream size : 7.21 GiB (78%)
Title : Men in Black 3 (2012)
Writing library : x264 core 132 r2323+704+51 d571b1c tMod [[email protected] X86]
Encoding settings : cabac=1 / ref=10 / deblock=1:-3:-3 / analyse=0x3:0x113 / me=tesa / subme=11 / psy=1 / fade_compensate=0.00 / psy_rd=1.10:0.20 / mixed_ref=1 / me_range=48 / chroma_me=1 / trellis=2 / 8x8dct=1 / cqm=0 / deadzone=21,11 / fast_pskip=0 / chroma_qp_offset=-3 / threads=16 / lookahead_threads=4 / sliced_threads=0 / nr=0 / decimate=0 / interlaced=0 / bluray_compat=0 / constrained_intra=0 / fgo=0 / bframes=10 / b_pyramid=2 / b_adapt=2 / b_bias=0 / direct=3 / weightb=1 / open_gop=0 / weightp=2 / keyint=240 / keyint_min=23 / scenecut=40 / intra_refresh=0 / rc_lookahead=240 / rc=2pass / mbtree=1 / bitrate=10000 / ratetol=1.0 / qcomp=0.70 / qpmin=0 / qpmax=69 / qpstep=4 / cplxblur=20.0 / qblur=0.5 / vbv_maxrate=50000 / vbv_bufsize=62500 / nal_hrd=none / ip_ratio=1.30 / aq=4:0.90 / aq-sensitivity=10.00 / aq-factor=1.00:1.00:1.00 / aq2=0 / aq3=0
Language : English
Default : Yes
Forced : No
Audio #1
ID : 2
Format : AC-3
Format/Info : Audio Coding 3
Mode extension : CM (complete main)
Format settings, Endianness : Big
Codec ID : A_AC3
Duration : 1h 45mn
Bit rate mode : Constant
Bit rate : 640 Kbps
Channel(s) : 6 channels
Channel positions : Front: L C R, Side: L R, LFE
Sampling rate : 48.0 KHz
Bit depth : 16 bits
Compression mode : Lossy
Stream size : 484 MiB (5%)
Title : Dub
Language : Russian
Default : Yes
Forced : No
Audio #2
ID : 3
Format : AC-3
Format/Info : Audio Coding 3
Mode extension : CM (complete main)
Format settings, Endianness : Big
Codec ID : A_AC3
Duration : 1h 45mn
Bit rate mode : Constant
Bit rate : 640 Kbps
Channel(s) : 6 channels
Channel positions : Front: L C R, Side: L R, LFE
Sampling rate : 48.0 KHz
Bit depth : 16 bits
Compression mode : Lossy
Stream size : 484 MiB (5%)
Title : AVO (Gavrilov)
Language : Russian
Default : No
Forced : No
Audio #3
ID : 4
Format : AC-3
Format/Info : Audio Coding 3
Mode extension : CM (complete main)
Format settings, Endianness : Big
Codec ID : A_AC3
Duration : 1h 45mn
Bit rate mode : Constant
Bit rate : 640 Kbps
Channel(s) : 6 channels
Channel positions : Front: L C R, Side: L R, LFE
Sampling rate : 48.0 KHz
Bit depth : 16 bits
Compression mode : Lossy
Stream size : 484 MiB (5%)
Title : Dub
Language : Ukrainian
Default : No
Forced : No
Audio #4
ID : 5
Format : AC-3
Format/Info : Audio Coding 3
Mode extension : CM (complete main)
Format settings, Endianness : Big
Codec ID : A_AC3
Duration : 1h 45mn
Bit rate mode : Constant
Bit rate : 640 Kbps
Channel(s) : 6 channels
Channel positions : Front: L C R, Side: L R, LFE
Sampling rate : 48.0 KHz
Bit depth : 16 bits
Compression mode : Lossy
Stream size : 484 MiB (5%)
Title : Original
Language : English
Default : No
Forced : No
Text #1
ID : 6
Format : UTF-8
Codec ID : S_TEXT/UTF8
Codec ID/Info : UTF-8 Plain Text
Language : Russian
Default : No
Forced : No
Text #2
ID : 7
Format : UTF-8
Codec ID : S_TEXT/UTF8
Codec ID/Info : UTF-8 Plain Text
Language : English
Default : No
Forced : No
Menu
00:00:00.000 : :Chapter 01
00:06:09.577 : :Chapter 02
00:11:27.478 : :Chapter 03
00:16:58.809 : :Chapter 04
00:22:36.229 : :Chapter 05
00:31:24.632 : :Chapter 06
00:37:36.420 : :Chapter 07
00:42:43.018 : :Chapter 08
00:48:55.849 : :Chapter 09
00:53:58.235 : :Chapter 10
00:59:27.772 : :Chapter 11
01:05:52.782 : :Chapter 12
01:11:56.312 : :Chapter 13
01:19:50.619 : :Chapter 14
01:27:57.063 : :Chapter 15
01:35:30.683 : :Chapter 16

x264 [info]

x264 [info]: 1280x694p 1:1 @ 24000/1001 fps (cfr)
x264 [info]: frame I:1605 Avg QP:14.73 size:209371
x264 [info]: frame P:34961 Avg QP:16.70 size: 82126
x264 [info]: frame B:115691 Avg QP:18.51 size: 40878
x264 [info]: consecutive B-frames: 3.2% 3.4% 12.3% 15.3% 15.6% 41.0% 5.7% 1.4% 0.9% 0.7% 0.4%
x264 [info]: mb I I16..4: 22.0% 52.1% 25.9%
x264 [info]: mb P I16..4: 2.1% 12.6% 3.0% P16..4: 23.8% 31.8% 19.0% 0.0% 0.0% skip: 7.8%
x264 [info]: mb B I16..4: 0.3% 2.1% 0.4% B16..8: 31.8% 23.7% 6.3% direct:10.5% skip:24.9% L0:42.4% L1:36.8% BI:20.8%
x264 [info]: 8x8 transform intra:69.6% inter:39.3%
x264 [info]: direct mvs spatial:98.6% temporal:1.4%
x264 [info]: coded y,uvDC,uvAC intra: 94.6% 92.8% 85.8% inter: 43.8% 43.8% 30.6%
x264 [info]: i16 v,h,dc,p: 11% 4% 31% 54%
x264 [info]: i8 v,h,dc,ddl,ddr,vr,hd,vl,hu: 13% 10% 13% 8% 11% 11% 11% 11% 13%
x264 [info]: i4 v,h,dc,ddl,ddr,vr,hd,vl,hu: 18% 8% 8% 8% 13% 12% 11% 10% 11%
x264 [info]: i8c dc,h,v,p: 57% 15% 12% 16%
x264 [info]: Weighted P-Frames: Y:3.7% UV:1.7%
x264 [info]: ref P L0: 40.9% 8.8% 20.7% 6.7% 7.0% 4.3% 4.7% 2.1% 2.5% 1.9% 0.4% 0.0%
x264 [info]: ref B L0: 68.9% 13.7% 6.2% 3.5% 2.6% 2.3% 1.7% 0.8% 0.3%
x264 [info]: ref B L1: 91.8% 8.2%
x264 [info]: kb/s:9998.03
x264 [info]: encoded 152257 frames, 1.209 fps, 9998.03 kb/s, 7568.8 MB

Скриншот c названием фильма

Скриншоты

Сравнение

Source vs HDChina vs fanatus




Other forum [Profile] [PM]
Display posts from previous:    
Reply to topic

The time now is: Today 05:40

All times are GMT + 3 Hours



You cannot post new topics in this forum
You cannot reply to topics in this forum
You cannot edit your posts in this forum
You cannot delete your posts in this forum
You cannot vote in polls in this forum
You cannot attach files in this forum
You cannot download files in this forum