Today is a free download without charge Download

Ниночка / Ninotchka (Эрнст Любич / Ernst Lubitsch) [1939, США, мелодрама, комедия, WEB-DL 720p] 3х MVO (Film Prestige, Домашний) + AVO (Либергал) + Sub Rus, Eng + Original Eng

Reply to topic
 
Author
Message

Omen ®

Longevity: 8 years 5 months

Posts: 181087

Торрент-статистика

Post 20-May-2013 00:33

[Quote]

Ниночка / Ninotchka
Страна: США
Жанр: мелодрама, комедия
Год выпуска: 1939
Продолжительность: 01:50:30
Перевод 1: Профессиональный (многоголосый закадровый) - Film Prestige
Перевод 2: Профессиональный (многоголосый закадровый) - Домашний
Перевод 3: Профессиональный (многоголосый закадровый)
Перевод 4: Авторский (одноголосый закадровый) - Либергал
Cубтитры: русские (Film Prestige, Яна Кигара), английские
Оригинальная аудиодорожка: английский
Режиссер: Эрнст Любич / Ernst Lubitsch
В ролях: Грета Гарбо, Мелвин Дуглас, Ина Клер, Бела Лугоши, Сиг Руман, Феликс Брессарт, Александр Гранах, Грегори Гайе, Рольф Седан, Эдвин Максвелл
Описание: В Париж прибывают посланцы Страны Советов, чтобы выгодно продать национализированные драгоценности, и на вырученные деньги купить оружие и продукты. Неожиданно выясняется, что часть бриллиантов принадлежала до революции великой княгине Сване, которая посылает своего юриста и любовника Леона уладить дела с «красными».
Вкусившие сладкую парижскую жизнь, они заранее готовы на все, лишь бы подольше пробыть здесь. Но поскольку от посланцев ни слуху, ни духу, в Париж с чрезвычайной миссией выезжает несгибаемая революционерка Ниночка… Узнав об этом, Леон решает соблазнить «комиссаршу»…
Доп. информация:


За русские дорожки спасибо olegsa и Oleg39
Сэмпл: http://sendfile.su/813262
Тип релиза: WEB-DL 720p
Контейнер: MKV
Видео: H.264, 988x720, L3.1, 23.976fps, 4142kbps, 0.243bit/pixel
Аудио 1: Russian, AC3, 48000Hz, 2ch, 192kbps - Film Prestige
Аудио 2: Russian, AC3, 48000Hz, 2ch, 192kbps - Домашний
Аудио 3: Russian, AC3, 48000Hz, 2ch, 192kbps - MVO №3
Аудио 4: Russian, AC3, 48000Hz, 2ch, 192kbps - Либергал
Аудио 5: English, AC3, 48000Hz, 1ch, 192kbps
Формат субтитров: softsub (SRT)

MediaInfo

Общее
Уникальный идентификатор : 224925841476038054635953766599155966560 (0xA937242EA1525B43857FE13BDE1EE260)
Полное имя : W:\Ниночка (Ninotchka) (WEB-DL 720p).mkv
Формат : Matroska
Версия формата : Version 4 / Version 2
Размер файла : 4,02 Гбайт
Продолжительность : 1 ч. 50 м.
Общий поток : 5206 Кбит/сек
Дата кодирования : UTC 2013-05-19 19:07:49
Программа кодирования : mkvmerge v6.2.0 ('Promised Land') built on May 1 2013 18:02:55
Библиотека кодирования : libebml v1.3.0 + libmatroska v1.4.0
Видео
Идентификатор : 1
Формат : AVC
Формат/Информация : Advanced Video Codec
Профиль формата : [email protected]
Параметр CABAC формата : Нет
Параметр ReFrames формата : 2 кадра
Идентификатор кодека : V_MPEG4/ISO/AVC
Продолжительность : 1 ч. 50 м.
Битрейт : 4142 Кбит/сек
Ширина : 988 пикселей
Высота : 720 пикселей
Соотношение сторон : 1,372
Режим частоты кадров : Постоянный
Частота кадров : 23,976 кадра/сек
Цветовое пространство : YUV
Субдискретизация насыщенности : 4:2:0
Битовая глубина : 8 бит
Тип развёртки : Прогрессивная
Бит/(Пиксели*Кадры) : 0.243
Размер потока : 3,20 Гбайт (80%)
Язык : English
Default : Да
Forced : Нет
Основные цвета : BT.709
Характеристики трансфера : BT.709
Коэффициенты матрицы : BT.709
Аудио #1
Идентификатор : 2
Формат : AC-3
Формат/Информация : Audio Coding 3
Расширение режима : CM (complete main)
Параметр Endianness формата : Big
Идентификатор кодека : A_AC3
Продолжительность : 1 ч. 50 м.
Вид битрейта : Постоянный
Битрейт : 192 Кбит/сек
Каналы : 2 канала
Расположение каналов : Front: L R
Частота : 48,0 КГц
Битовая глубина : 16 бит
Метод сжатия : С потерями
Размер потока : 152 Мбайт (4%)
Заголовок : Film Prestige
Язык : Russian
Default : Да
Forced : Нет
Аудио #2
Идентификатор : 3
Формат : AC-3
Формат/Информация : Audio Coding 3
Расширение режима : CM (complete main)
Параметр Endianness формата : Big
Идентификатор кодека : A_AC3
Продолжительность : 1 ч. 50 м.
Вид битрейта : Постоянный
Битрейт : 192 Кбит/сек
Каналы : 2 канала
Расположение каналов : Front: L R
Частота : 48,0 КГц
Битовая глубина : 16 бит
Метод сжатия : С потерями
Размер потока : 152 Мбайт (4%)
Заголовок : Domashnii
Язык : Russian
Default : Нет
Forced : Нет
Аудио #3
Идентификатор : 4
Формат : AC-3
Формат/Информация : Audio Coding 3
Расширение режима : CM (complete main)
Параметр Endianness формата : Big
Идентификатор кодека : A_AC3
Продолжительность : 1 ч. 50 м.
Вид битрейта : Постоянный
Битрейт : 192 Кбит/сек
Каналы : 2 канала
Расположение каналов : Front: L R
Частота : 48,0 КГц
Битовая глубина : 16 бит
Метод сжатия : С потерями
Размер потока : 152 Мбайт (4%)
Заголовок : MVO
Язык : Russian
Default : Нет
Forced : Нет
Аудио #4
Идентификатор : 5
Формат : AC-3
Формат/Информация : Audio Coding 3
Расширение режима : CM (complete main)
Параметр Endianness формата : Big
Идентификатор кодека : A_AC3
Продолжительность : 1 ч. 50 м.
Вид битрейта : Постоянный
Битрейт : 192 Кбит/сек
Каналы : 2 канала
Расположение каналов : Front: L R
Частота : 48,0 КГц
Битовая глубина : 16 бит
Метод сжатия : С потерями
Размер потока : 152 Мбайт (4%)
Заголовок : Libergal
Язык : Russian
Default : Нет
Forced : Нет
Аудио #5
Идентификатор : 6
Формат : AC-3
Формат/Информация : Audio Coding 3
Расширение режима : CM (complete main)
Параметр Endianness формата : Big
Идентификатор кодека : A_AC3
Продолжительность : 1 ч. 50 м.
Вид битрейта : Постоянный
Битрейт : 192 Кбит/сек
Каналы : 1 канал
Расположение каналов : Front: C
Частота : 48,0 КГц
Битовая глубина : 16 бит
Метод сжатия : С потерями
Размер потока : 152 Мбайт (4%)
Заголовок : Original
Язык : English
Default : Нет
Forced : Нет
Текст #1
Идентификатор : 7
Формат : UTF-8
Идентификатор кодека : S_TEXT/UTF8
Идентификатор кодека/Информация : UTF-8 Plain Text
Заголовок : Film Prestige
Язык : Russian
Default : Нет
Forced : Нет
Текст #2
Идентификатор : 8
Формат : UTF-8
Идентификатор кодека : S_TEXT/UTF8
Идентификатор кодека/Информация : UTF-8 Plain Text
Заголовок : Yana Kigara
Язык : Russian
Default : Нет
Forced : Нет
Текст #3
Идентификатор : 9
Формат : UTF-8
Идентификатор кодека : S_TEXT/UTF8
Идентификатор кодека/Информация : UTF-8 Plain Text
Заголовок : Full
Язык : English
Default : Нет
Forced : Нет
Меню
00:00:00.000 : en:Chapter 1
00:01:19.000 : en:Chapter 2
00:05:11.000 : en:Chapter 3
00:10:09.000 : en:Chapter 4
00:14:20.000 : en:Chapter 5
00:17:33.000 : en:Chapter 6
00:20:54.000 : en:Chapter 7
00:24:23.000 : en:Chapter 8
00:27:58.000 : en:Chapter 9
00:31:20.000 : en:Chapter 10
00:35:01.000 : en:Chapter 11
00:38:04.000 : en:Chapter 12
00:40:24.000 : en:Chapter 13
00:44:01.000 : en:Chapter 14
00:49:38.000 : en:Chapter 15
00:53:09.000 : en:Chapter 16
00:56:57.000 : en:Chapter 17
01:00:37.000 : en:Chapter 18
01:06:24.000 : en:Chapter 19
01:09:28.000 : en:Chapter 20
01:11:46.000 : en:Chapter 21
01:17:10.000 : en:Chapter 22
01:22:47.000 : en:Chapter 23
01:25:29.000 : en:Chapter 24
01:28:26.000 : en:Chapter 25
01:30:44.000 : en:Chapter 26
01:35:45.000 : en:Chapter 27
01:39:34.000 : en:Chapter 28
01:41:58.000 : en:Chapter 29
01:44:55.000 : en:Chapter 30
01:47:51.000 : en:Chapter 31
01:49:47.000 : en:Chapter 32

Скриншоты

Other forum [Profile] [PM]
Display posts from previous:    
Reply to topic

The time now is: Today 05:00

All times are GMT + 3 Hours



You cannot post new topics in this forum
You cannot reply to topics in this forum
You cannot edit your posts in this forum
You cannot delete your posts in this forum
You cannot vote in polls in this forum
You cannot attach files in this forum
You cannot download files in this forum