Today is a free download without charge Download

Операция «Ы» и другие приключения Шурика (1965) BDRemux [1080p]

Reply to topic
 
Author
Message

UndegraundMen ®

Longevity: 8 years 7 months

Posts: 25145

Торрент-статистика

Post 20-May-2013 00:03

[Quote]

Операция «Ы» и другие приключения Шурика (1965) BDRemux- Оригинальное название: Операция «Ы» и другие приключения Шурика
Год выпуска: 1965
Производство: Мосфильм [СССР]
Жанр: Мелодрама, комедия, криминал
Перевод: Не требуется [Русский язык]
Субтитры: Отсутствуют
Режиссер: Леонид Гайдай
Актеры: Александр Демьяненко, Наталья Селезнёва, Алексей Смирнов, Евгений Моргунов, Юрий Никулин, Георгий Вицин, Михаил Пуговкин, Владимир Басов, Рина Зеленая, Виктор Павлов
Описание фильма:
Фильм состоит из трех новелл, объединенных фигурой главного героя Шурика, попадающего в самые невероятные ситуации. В «Напарнике» Шурик сражается с хулиганом Верзилой; в «Наваждении» весьма оригинальным способом готовится к экзамену; в «Операции «Ы» предотвращает «ограбление века», на которое идет знаменитая тройка — Балбес, Трус и Бывалый.
Дата мировой премьеры: 23 июля 1965
Дата выхода DVD релиза: 11 января 2011, «Парадиз Медиа»
Возраст 0+ - для любой зрительской аудитории

Продолжительность: 01:34:33
Качество видео: BDRemux
Видео: MPEG4_AVC/H.264, 1920x1080, ~19719 kbps, 23.976 fps
Аудио 1: DTS-HD MA 5.1, 3623 kbps [Русский]
Аудио 2: AC3 5.1, 448 kbps [Русский]

MediaInfo...

Полное имя : D:\Операция.«Ы».и.другие.приключения.Шурика.(1965).BDRemux.[1080p].mkv
Формат : Matroska
Версия формата : Version 2
Размер файла : 15,7 Гбайт
Продолжительность : 1 ч. 34 м.
Режим общего битрейта : Переменный
Общий поток : 23,8 Мбит/сек
Название фильма : Lelya_K for /*spam*/
Дата кодирования : UTC 2013-05-17 22:40:04
Программа кодирования : mkvmerge v5.7.0 ('The Whirlwind') built on Aug 7 2012 14:11:40
Библиотека кодирования : libebml v1.2.3 + libmatroska v1.3.0
Видео
Идентификатор : 1
Формат : AVC
Формат/Информация : Advanced Video Codec
Профиль формата : [url=mailto:[email protected]][email protected][/url]
Параметр CABAC формата : Да
Параметр ReFrames формата : 4 кадра
Параметр GOP формата : M=3, N=24
Идентификатор кодека : V_MPEG4/ISO/AVC
Продолжительность : 1 ч. 34 м.
Вид битрейта : Переменный
Битрейт : 20,1 Мбит/сек
Максимальный битрейт : 25,0 Мбит/сек
Ширина : 1920 пикселей
Высота : 1080 пикселей
Соотношение сторон : 16:9
Режим частоты кадров : Постоянный
Частота кадров : 23,976 кадра/сек
Стандарт вещания : NTSC
Цветовое пространство : YUV
Субдискретизация насыщенности : 4:2:0
Битовая глубина : 8 бит
Тип развёртки : Прогрессивная
Бит/(Пиксели*Кадры) : 0.404
Размер потока : 13,3 Гбайт (85%)
Заголовок : Операция.«Ы».и.другие.приключения.Шурика.(1965).BDRemux.[1080p]
Язык : Russian
Default : Да
Forced : Нет
Основные цвета : BT.709
Характеристики трансфера : BT.709
Коэффициенты матрицы : BT.709
Аудио #1
Идентификатор : 2
Формат : DTS
Формат/Информация : Digital Theater Systems
Профиль формата : MA / Core
Идентификатор кодека : A_DTS
Продолжительность : 1 ч. 34 м.
Вид битрейта : Переменный
Битрейт : 2764 Кбит/сек / 1510 Кбит/сек
Каналы : 6 каналов
Расположение каналов : Front: L C R, Side: L R, LFE
Частота : 48,0 КГц
Битовая глубина : 24 бит
Метод сжатия : Без потерь / Lossy
Заголовок : DTS-HD MA 5.1 / 3623 kbps
Язык : Russian
Default : Да
Forced : Нет
Аудио #2
Идентификатор : 3
Формат : AC-3
Формат/Информация : Audio Coding 3
Расширение режима : CM (complete main)
Параметр Endianness формата : Big
Идентификатор кодека : A_AC3
Продолжительность : 1 ч. 34 м.
Вид битрейта : Постоянный
Битрейт : 448 Кбит/сек
Каналы : 6 каналов
Расположение каналов : Front: L C R, Side: L R, LFE
Частота : 48,0 КГц
Битовая глубина : 16 бит
Метод сжатия : С потерями
Размер потока : 303 Мбайт (2%)
Заголовок : AC3 5.1 / 448 kbps
Язык : Russian
Default : Нет
Forced : Нет
Меню
00:00:00.000 : ru:Chapter 00
00:03:46.935 : ru:Chapter 01
00:08:52.615 : ru:Chapter 02
00:13:58.629 : ru:Chapter 03
00:17:53.322 : ru:Chapter 04
00:25:03.502 : ru:Chapter 05
00:31:35.893 : ru:Chapter 06
00:35:16.948 : ru:Chapter 07
00:41:43.584 : ru:Chapter 08
00:45:58.630 : ru:Chapter 09
00:52:43.160 : ru:Chapter 10
00:57:14.055 : ru:Chapter 11
01:03:11.037 : ru:Chapter 12
01:06:33.489 : ru:Chapter 13
01:13:24.608 : ru:Chapter 14
01:15:08.212 : ru:Chapter 15
01:20:51.513 : ru:Chapter 16
01:29:02.003 : ru:Chapter 17
01:34:28.079 : ru:Chapter 18

Дополнительно...

Полная реставрация изображения и звука. Исходные киноматериалы подготовлены Госфильмофондом России. Покадровая цифровая реставрация изображения, ремастеринг звука и авторинг проведены объединением «Крупный план».
Скриншоты:
       
       
Время раздачи: 24/7 (до 10 скачавших)
Other forum [Profile] [PM]
Display posts from previous:    
Reply to topic

The time now is: Today 21:25

All times are GMT + 3 Hours



You cannot post new topics in this forum
You cannot reply to topics in this forum
You cannot edit your posts in this forum
You cannot delete your posts in this forum
You cannot vote in polls in this forum
You cannot attach files in this forum
You cannot download files in this forum