Today is a free download without charge Download

Операция «Ы» и другие приключения Шурика (1965) BDRip [720p]

Reply to topic
 
Author
Message

UndegraundMen ®

Longevity: 8 years 7 months

Posts: 25145

Торрент-статистика

Post 20-May-2013 00:03

[Quote]

Операция «Ы» и другие приключения Шурика (1965) BDRip- Русское название: Операция «Ы» и другие приключения Шурика
Год выпуска: 1965
Производство: СССР
Жанр: Мелодрама, Комедия, Криминал
Перевод: Не требуется (Русский)
Субтитры: Отсутствуют
Режиссер: Леонид Гайдай
Актеры: Александр Демьяненко, Наталья Селезнёва, Алексей Смирнов, Юрий Никулин, Евгений Моргунов, Георгий Вицин, Михаил Пуговкин, Виктор Павлов, Владимир Басов, Рина Зеленая
Описание фильма:
Фильм состоит из трех новелл, объединенных фигурой главного героя Шурика, попадающего в самые невероятные ситуации. В «Напарнике» Шурик сражается с хулиганом Верзилой; в «Наваждении» весьма оригинальным способом готовится к экзамену; в «Операции «Ы» предотвращает «ограбление века», на которое идет знаменитая тройка — Балбес, Трус и Бывалый.
Дата мировой премьеры: 23 июля 1965
Дата выхода DVD релиза: 11 января 2011, «Парадиз Медиа»

Продолжительность: 01:34:33
Качество видео: BDRip [720p]
Видео: 946x720, ~5000 Кбит/с
Аудио: AC3, 6 ch, 640 Кбит/с (Русский)

MediaInfo:

Общее
Уникальный идентификатор : 234914193314143916389041396008378703808 (0xB0BAD3F2FE31EC52BE8A07D0F4FC1FC0)
Полное имя : Operatsiya.Y.I.Drugie.Priklyucheniya.Shurika.1965.BDRip.720p.mkv
Формат : Matroska
Версия формата : Version 2
Размер файла : 3,73 Гбайт
Продолжительность : 1 ч. 34 м.
Общий поток : 5641 Кбит/сек
Название фильма : Operatsiya "Y" i drugiye priklyucheniya Shurika (1965) - HQ-ViDEO
Дата кодирования : UTC 2013-05-18 15:30:43
Программа кодирования : mkvmerge v6.2.0 ('Promised Land') built on Apr 28 2013 12:22:01
Библиотека кодирования : libebml v1.3.0 + libmatroska v1.4.0
Видео
Идентификатор : 1
Формат : AVC
Формат/Информация : Advanced Video Codec
Профиль формата : [url=mailto:[email protected]][email protected][/url]
Параметр CABAC формата : Да
Параметр ReFrames формата : 12 кадров
Идентификатор кодека : V_MPEG4/ISO/AVC
Продолжительность : 1 ч. 34 м.
Битрейт : 5000 Кбит/сек
Ширина : 946 пикселей
Высота : 720 пикселей
Соотношение сторон : 4:3
Частота кадров : 23,976 кадра/сек
Цветовое пространство : YUV
Субдискретизация насыщенности : 4:2:0
Битовая глубина : 8 бит
Тип развёртки : Прогрессивная
Бит/(Пиксели*Кадры) : 0.306
Размер потока : 3,23 Гбайт (87%)
Заголовок : Vaippp @ 5000 Kbps
Библиотека кодирования : x264 core 132 r2310 76a5c3a
Настройки программы : cabac=1 / ref=12 / deblock=1:-3:-3 / analyse=0x3:0x133 / me=umh / subme=11 / psy=1 / psy_rd=1.00:0.00 / mixed_ref=1 / me_range=32 / chroma_me=1 / trellis=2 / 8x8dct=1 / cqm=0 / deadzone=21,11 / fast_pskip=0 / chroma_qp_offset=-2 / threads=12 / lookahead_threads=1 / sliced_threads=0 / nr=0 / decimate=0 / interlaced=0 / bluray_compat=0 / constrained_intra=0 / bframes=5 / b_pyramid=2 / b_adapt=2 / b_bias=0 / direct=3 / weightb=1 / open_gop=0 / weightp=2 / keyint=240 / keyint_min=22 / scenecut=40 / intra_refresh=0 / rc_lookahead=60 / rc=2pass / mbtree=0 / bitrate=5000 / ratetol=1.0 / qcomp=0.68 / qpmin=0 / qpmax=69 / qpstep=4 / cplxblur=20.0 / qblur=0.5 / vbv_maxrate=62500 / vbv_bufsize=78125 / nal_hrd=none / ip_ratio=1.40 / pb_ratio=1.30 / aq=1:0.77
Язык : English
Default : Да
Forced : Нет
Основные цвета : BT.709-5, BT.1361, IEC 61966-2-4, SMPTE RP177
Характеристики трансфера : BT.709-5, BT.1361
Коэффициенты матрицы : BT.709-5, BT.1361, IEC 61966-2-4 709, SMPTE RP177
Аудио
Идентификатор : 2
Формат : AC-3
Формат/Информация : Audio Coding 3
Расширение режима : CM (complete main)
Идентификатор кодека : A_AC3
Продолжительность : 1 ч. 34 м.
Вид битрейта : Постоянный
Битрейт : 640 Кбит/сек
Каналы : 6 каналов
Расположение каналов : Front: L C R, Side: L R, LFE
Частота : 48,0 КГц
Битовая глубина : 16 бит
Метод сжатия : С потерями
Размер потока : 433 Мбайт (11%)
Заголовок : AC3 DD 5.1 @ 640 Kbps Original - Blu-Ray RUS
Язык : Russian
Default : Да
Forced : Да
Меню
00:00:00.000 : en:Chapter 01
00:03:46.935 : en:Chapter 02
00:08:52.615 : en:Chapter 03
00:13:58.629 : en:Chapter 04
00:17:53.322 : en:Chapter 05
00:25:03.502 : en:Chapter 06
00:31:35.893 : en:Chapter 07
00:35:16.948 : en:Chapter 08
00:41:43.584 : en:Chapter 09
00:45:58.630 : en:Chapter 10
00:52:43.160 : en:Chapter 11
00:57:14.055 : en:Chapter 12
01:03:11.037 : en:Chapter 13
01:06:33.489 : en:Chapter 14
01:13:24.608 : en:Chapter 15
01:15:08.212 : en:Chapter 16
01:20:51.513 : en:Chapter 17
01:29:02.003 : en:Chapter 18
01:34:28.079 : en:Chapter 19
Скриншоты:
       
       
Время раздачи: Обычно с 19:00 до 00:00
Other forum [Profile] [PM]

Dracula

Longevity: 7 years 11 months

Posts: 11006

Торрент-статистика

Post 20-May-2013 14:41 (after 14 hours)

Топик был перенесен из форума Классика отечественных фильмов в форум Наше кино (HD Video)


RUGUI
 
Display posts from previous:    
Reply to topic

The time now is: Today 19:28

All times are GMT + 3 Hours



You cannot post new topics in this forum
You cannot reply to topics in this forum
You cannot edit your posts in this forum
You cannot delete your posts in this forum
You cannot vote in polls in this forum
You cannot attach files in this forum
You cannot download files in this forum