Today is a free download without charge Download

Операция «Ы» и другие приключения Шурика (1965) BDRip [1080p]

Reply to topic
 
Author
Message

UndegraundMen ®

Longevity: 8 years 7 months

Posts: 25145

Торрент-статистика

Post 20-May-2013 00:03

[Quote]

Операция «Ы» и другие приключения Шурика (1965) BDRip- Русское название: Операция «Ы» и другие приключения Шурика
Год выпуска: 1965
Производство: СССР
Жанр: Мелодрама, Комедия, Криминал
Перевод: Не требуется (Русский)
Субтитры: Отсутствуют
Режиссер: Леонид Гайдай
Актеры: Александр Демьяненко, Наталья Селезнёва, Алексей Смирнов, Юрий Никулин, Евгений Моргунов, Георгий Вицин, Михаил Пуговкин, Виктор Павлов, Владимир Басов, Рина Зеленая
Описание фильма:
Фильм состоит из трех новелл, объединенных фигурой главного героя Шурика, попадающего в самые невероятные ситуации. В «Напарнике» Шурик сражается с хулиганом Верзилой; в «Наваждении» весьма оригинальным способом готовится к экзамену; в «Операции «Ы» предотвращает «ограбление века», на которое идет знаменитая тройка — Балбес, Трус и Бывалый.
Дата мировой премьеры: 23 июля 1965
Дата выхода DVD релиза: 11 января 2011, «Парадиз Медиа»

Продолжительность: 01:34:33
Качество видео: BDRip [1080p]
Видео: 1420x1080, ~10.2 Мбит/с
Аудио: DTS, 6 ch, 1510 Кбит/с (Русский)

MediaInfo:

Общее
Уникальный идентификатор : 213881889216697172879198244899957601033 (0xA0E8274BCE4A5F398630610E555D7309)
Полное имя : Shurik.1965.BDRip.1080p.mkv
Формат : Matroska
Версия формата : Version 4 / Version 2
Размер файла : 7,73 Гбайт
Продолжительность : 1 ч. 34 м.
Общий поток : 11,7 Мбит/сек
Название фильма : CMEGRoup
Дата кодирования : UTC 2013-05-18 07:40:32
Программа кодирования : mkvmerge v6.1.0 ('Old Devil') built on Mar 2 2013 14:32:37
Библиотека кодирования : libebml v1.3.0 + libmatroska v1.4.0
Видео
Идентификатор : 1
Формат : AVC
Формат/Информация : Advanced Video Codec
Профиль формата : [url=mailto:[email protected]][email protected][/url]
Параметр CABAC формата : Да
Параметр ReFrames формата : 4 кадра
Идентификатор кодека : V_MPEG4/ISO/AVC
Продолжительность : 1 ч. 34 м.
Битрейт : 10,2 Мбит/сек
Ширина : 1420 пикселей
Высота : 1080 пикселей
Соотношение сторон : 4:3
Частота кадров : 23,976 кадра/сек
Цветовое пространство : YUV
Субдискретизация насыщенности : 4:2:0
Битовая глубина : 8 бит
Тип развёртки : Прогрессивная
Бит/(Пиксели*Кадры) : 0.277
Размер потока : 6,58 Гбайт (85%)
Библиотека кодирования : x264 core 132 r2310 76a5c3a
Настройки программы : cabac=1 / ref=4 / deblock=1:-3:-3 / analyse=0x3:0x113 / me=umh / subme=10 / psy=1 / psy_rd=1.00:0.00 / mixed_ref=1 / me_range=24 / chroma_me=1 / trellis=2 / 8x8dct=1 / cqm=0 / deadzone=21,11 / fast_pskip=1 / chroma_qp_offset=-2 / threads=6 / lookahead_threads=1 / sliced_threads=0 / nr=0 / decimate=1 / interlaced=0 / bluray_compat=0 / constrained_intra=0 / bframes=5 / b_pyramid=2 / b_adapt=2 / b_bias=0 / direct=2 / weightb=0 / open_gop=0 / weightp=2 / keyint=240 / keyint_min=23 / scenecut=40 / intra_refresh=0 / rc_lookahead=40 / rc=2pass / mbtree=1 / bitrate=10200 / ratetol=1.0 / qcomp=0.60 / qpmin=0 / qpmax=69 / qpstep=4 / cplxblur=20.0 / qblur=0.5 / vbv_maxrate=62500 / vbv_bufsize=78125 / nal_hrd=none / ip_ratio=1.40 / aq=1:1.00
Язык : English
Default : Да
Forced : Нет
Аудио
Идентификатор : 2
Формат : DTS
Формат/Информация : Digital Theater Systems
Идентификатор кодека : A_DTS
Продолжительность : 1 ч. 34 м.
Вид битрейта : Постоянный
Битрейт : 1510 Кбит/сек
Каналы : 6 каналов
Расположение каналов : Front: L C R, Side: L R, LFE
Частота : 48,0 КГц
Битовая глубина : 24 бит
Метод сжатия : С потерями
Размер потока : 1021 Мбайт (13%)
Default : Да
Forced : Нет
Меню
00:00:00.000 : :Chapter 01
00:03:46.935 : :Chapter 02
00:08:52.615 : :Chapter 03
00:13:58.629 : :Chapter 04
00:17:53.322 : :Chapter 05
00:25:03.502 : :Chapter 06
00:31:35.893 : :Chapter 07
00:35:16.948 : :Chapter 08
00:41:43.584 : :Chapter 09
00:45:58.630 : :Chapter 10
00:52:43.160 : :Chapter 11
00:57:14.055 : :Chapter 12
01:03:11.037 : :Chapter 13
01:06:33.489 : :Chapter 14
01:13:24.608 : :Chapter 15
01:15:08.212 : :Chapter 16
01:20:51.513 : :Chapter 17
01:29:02.003 : :Chapter 18
01:34:28.079 : :Chapter 19
Скриншоты:
       
       
Время раздачи: Обычно с 19:00 до 00:00
Other forum [Profile] [PM]

Dracula

Longevity: 7 years 11 months

Posts: 11009

Торрент-статистика

Post 20-May-2013 14:41 (after 14 hours)

Топик был перенесен из форума Классика отечественных фильмов в форум Наше кино (HD Video)


RUGUI
 
Display posts from previous:    
Reply to topic

The time now is: Today 13:45

All times are GMT + 3 Hours



You cannot post new topics in this forum
You cannot reply to topics in this forum
You cannot edit your posts in this forum
You cannot delete your posts in this forum
You cannot vote in polls in this forum
You cannot attach files in this forum
You cannot download files in this forum