Today is a free download without charge Download

Ookami Kodomo no Ame to Yuki / The Wolf Children Ame and Yuki / Волчьи дети Амэ и Юки [2012, MV] BDRip 720p Raw+Rus

Reply to topic
 
Author
Message

UndegraundMen ®

Longevity: 8 years 11 months

Posts: 25145

Торрент-статистика

Post 20-May-2013 00:03

[Quote]

Ookami Kodomo no Ame to Yuki / The Wolf Children Ame and Yuki / Волчьи дети Амэ и Юки- Жанр: драма
Тип: Фильм
Продолжительность: 118 мин
Премьера: 25.06.2012
Автор оригинала: Хосода Мамору
Режиссер: Хосода Мамору
Студия:
Качество: BDRip
Формат: MKV
Видео: x264, ~3 000 Kbps, 1280x720, 23.976 fps, 8 bit [Zorori-Project]
Аудио RUS: AC3, 448 Kbps, 48.0 KHz, 6 ch
Аудио JAP: AC3, 640 Kbps, 48.0 KHz, 6 ch
Субтитры: ASS, Полные, Встроенные [LeDi-MaHo Team]

Переводчик: drauglin, Редактор: Holydarkness, Переводчик/Перевод песен: MantisFL, Редактор: zlobny_sow
Релиз: Renegade Team
Озвучка: Многоголосая [Breeze, Azart, Lasik, Hyver, Molibden ,Zohan]
Сборка BD: Ampho_dub
Описание:
Должен ли оборотень убить человека или же он способен любить? Могут ли завязаться отношения между обыкновенной девушкой и человеком-волком? Это лишь малая толика вопросов, с которыми предстоит столкнуться героям. И как одинокой хрупкой девушке растить своих детей. Выбрать ветеринарную клинику или же детскую больницу? Однако, несмотря на все трудности она вырастит их, и им предстоит выбрать свой путь, быть волками или людьми.

Тех. параметры:

General
Format : Matroska
Format version : Version 4 / Version 2
File size : 3.35 GiB
Duration : 1h 57mn
Overall bit rate : 4 093 Kbps
Movie name : Ookami Kodomo no Ame to Yuki [BD 1280x720 x264 DualAAC(2ch+5.1ch) JP+ENSub(Zorori-Project) @ RUELL]
Encoded date : UTC 2013-05-18 21:16:18
Writing application : mkvmerge v6.2.0 ('Promised Land') built on Apr 28 2013 12:22:01
Writing library : libebml v1.3.0 + libmatroska v1.4.0
Attachment : Yes / Yes / Yes / Yes / Yes / Yes / Yes / Yes
Video
ID : 1
Format : AVC
Format/Info : Advanced Video Codec
Format profile : [url=mailto:[email protected]][email protected][/url]
Format settings, CABAC : Yes
Format settings, ReFrames : 6 frames
Codec ID : V_MPEG4/ISO/AVC
Duration : 1h 57mn
Bit rate : 3 000 Kbps
Width : 1 280 pixels
Height : 720 pixels
Display aspect ratio : 16:9
Frame rate mode : Constant
Frame rate : 23.976 fps
Color space : YUV
Chroma subsampling : 4:2:0
Bit depth : 8 bits
Scan type : Progressive
Bits/(Pixel*Frame) : 0.136
Stream size : 2.39 GiB (71%)
Title : Japanese Video Track
Writing library : x264 core 125 r2200bm 999b753
Encoding settings : cabac=1 / ref=6 / deblock=1:1:1 / analyse=0x3:0x113 / me=hex / subme=7 / psy=1 / psy_rd=0.40:0.00 / mixed_ref=1 / me_range=16 / chroma_me=1 / trellis=1 / 8x8dct=1 / cqm=0 / deadzone=21,11 / fast_pskip=1 / chroma_qp_offset=-2 / threads=12 / lookahead_threads=2 / sliced_threads=0 / nr=0 / decimate=1 / interlaced=0 / bluray_compat=0 / constrained_intra=0 / bframes=5 / b_pyramid=2 / b_adapt=1 / b_bias=0 / direct=1 / weightb=1 / open_gop=0 / weightp=2 / keyint=250 / keyint_min=23 / scenecut=40 / intra_refresh=0 / rc_lookahead=40 / rc=2pass / mbtree=1 / bitrate=3000 / ratetol=1.0 / qcomp=0.60 / qpmin=0 / qpmax=69 / qpstep=4 / cplxblur=20.0 / qblur=0.5 / ip_ratio=1.40 / aq=1:0.60
Language : Japanese
Default : Yes
Forced : No
Audio #1
ID : 2
Format : AC-3
Format/Info : Audio Coding 3
Mode extension : CM (complete main)
Format settings, Endianness : Big
Codec ID : A_AC3
Duration : 1h 57mn
Bit rate mode : Constant
Bit rate : 640 Kbps
Channel(s) : 6 channels
Channel positions : Front: L C R, Side: L R, LFE
Sampling rate : 48.0 KHz
Bit depth : 16 bits
Compression mode : Lossy
Stream size : 536 MiB (16%)
Title : Japanese 5.1 Audio Track
Language : Japanese
Default : No
Forced : No
Audio #2
ID : 3
Format : AC-3
Format/Info : Audio Coding 3
Mode extension : CM (complete main)
Format settings, Endianness : Big
Codec ID : A_AC3
Duration : 1h 57mn
Bit rate mode : Constant
Bit rate : 448 Kbps
Channel(s) : 6 channels
Channel positions : Front: L C R, Side: L R, LFE
Sampling rate : 48.0 KHz
Bit depth : 16 bits
Compression mode : Lossy
Stream size : 375 MiB (11%)
Title : Renegade team
Language : Russian
Default : Yes
Forced : No
Text
ID : 4
Format : ASS
Codec ID : S_TEXT/ASS
Codec ID/Info : Advanced Sub Station Alpha
Compression mode : Lossless
Title : LeDi-MaHo Team
Language : Russian
Default : No
Forced : No
-            -Время раздачи: До первых сидов
Other forum [Profile] [PM]
Display posts from previous:    
Reply to topic

The time now is: Today 23:57

All times are GMT + 3 Hours



You cannot post new topics in this forum
You cannot reply to topics in this forum
You cannot edit your posts in this forum
You cannot delete your posts in this forum
You cannot vote in polls in this forum
You cannot attach files in this forum
You cannot download files in this forum