Today is a free download without charge Download

Открытая дорога / Open Road ( Марсиу Гарсия ) (2013, Боевик, Триллер, Драма ) BDRip [720p] [EN / EN Sub]

Reply to topic
 
Author
Message

Витек1 ®

Gender:

Longevity: 8 years 3 months

Posts: 451

Location: Житомир

Торрент-статистика

Post 19-May-2013 20:49

[Quote]

Открытая дорога / Open Road - Русское название: Открытая дорога
Оригинальное название: Open Road
Год выпуска: 2013
Жанр: Боевик, Триллер, Драма
Описание фильма:
Молодая бразильская художница Анжи (Камилла Бель), пытаясь расстаться со свой прежней жизнью, отправляется в путешествие по стране. Убегая от своего прошлого в поисках смысла жизни, Анжи находит не только себя, но и любовь в ее многочисленных формах...
Режиссер: Марсиу Гарсия
Актеры: Джульетт Льюис, Камилла Белль, Колин Эглсфилд, Энди Гарсиа, Джон Сэвэдж, Ингрид Роджерс, Теа Эмили Нельсон, Крэйг Геллис, Майкл Кинг, Кристи Клэйнос
Продолжительность: 01:25:16
Перевод: Отсутствует
Язык: Английский
Язык субтитров: английские
Вид субтитров: Вшитые, отключаемые

Видеокодек: MPEG-4 AVC/H.264
Битрейт видео: ~5 815 Kbps
Размер кадра: 1280x544
Качество видео: BDRip
Аудиокодек: DTS : 6 channels
Битрейт аудио: 1 510 Kbps
Сэмпл: Ссылка

Screenlist

 

MediaInfo

Open Road -720p.mkv
Format : Matroska
Format version : Version 2
File size : 4.36 GiB
Duration : 1h 25mn
Overall bit rate : 7 322 Kbps
Encoded date : UTC 2013-05-14 00:21:19
Writing application : mkvmerge v2.9.0 ('Moanin'') built on May 22 2009 17:46:31
Writing library : libebml v0.7.7 + libmatroska v0.8.1
Video
ID : 1
Format : AVC
Format/Info : Advanced Video Codec
Format profile : [url=mailto:[email protected]][email protected][/url]
Format settings, CABAC : Yes
Format settings, ReFrames : 5 frames
Codec ID : V_MPEG4/ISO/AVC
Duration : 1h 25mn
Bit rate : 5 815 Kbps
Width : 1 280 pixels
Height : 544 pixels
Display aspect ratio : 2.35:1
Frame rate : 23.976 fps
Color space : YUV
Chroma subsampling : 4:2:0
Bit depth : 8 bits
Scan type : Progressive
Bits/(Pixel*Frame) : 0.348
Stream size : 3.38 GiB (77%)
Writing library : x264 core 130 r2273 b3065e6
Encoding settings : cabac=1 / ref=5 / deblock=1:-1:-1 / analyse=0x3:0x113 / me=umh / subme=7 / psy=1 / psy_rd=1.00:0.00 / mixed_ref=1 / me_range=16 / chroma_me=1 / trellis=1 / 8x8dct=1 / cqm=0 / deadzone=21,11 / fast_pskip=1 / chroma_qp_offset=-2 / threads=12 / lookahead_threads=2 / sliced_threads=0 / nr=0 / decimate=1 / interlaced=0 / bluray_compat=0 / constrained_intra=0 / bframes=3 / b_pyramid=2 / b_adapt=2 / b_bias=0 / direct=3 / weightb=1 / open_gop=0 / weightp=2 / keyint=250 / keyint_min=23 / scenecut=40 / intra_refresh=0 / rc_lookahead=40 / rc=2pass / mbtree=1 / bitrate=5815 / ratetol=1.0 / qcomp=0.60 / qpmin=0 / qpmax=69 / qpstep=4 / cplxblur=20.0 / qblur=0.5 / vbv_maxrate=50000 / vbv_bufsize=50000 / nal_hrd=none / ip_ratio=1.40 / aq=1:1.00
Language : English
Default : Yes
Forced : No
Audio
ID : 2
Format : DTS
Format/Info : Digital Theater Systems
Codec ID : A_DTS
Duration : 1h 25mn
Bit rate mode : Constant
Bit rate : 1 510 Kbps
Channel(s) : 6 channels
Channel positions : Front: L C R, Side: L R, LFE
Sampling rate : 48.0 KHz
Bit depth : 24 bits
Compression mode : Lossy
Stream size : 921 MiB (21%)
Language : English
Default : Yes
Forced : No
Text
ID : 3
Format : UTF-8
Codec ID : S_TEXT/UTF8
Codec ID/Info : UTF-8 Plain Text
Language : English
Default : Yes
Forced : No
Скриншоты:
   
   

_________________
Скачал сам, дай скачать другому!!!Не забудь сказать -
Other forum [Profile] [PM]

Dracula

Longevity: 7 years 5 months

Posts: 11219

Торрент-статистика

Post 02-Jan-2014 15:52 (after 7 months 13 days)

Топик был перенесен из форума Новинки (DVD, HD Video) в форум Зарубежное кино (HD Video)


kogesan
 
Similar theme
Forum Topic Author Torrent Replies Last Post
./templates/default/images/folder_dl.gif Техническая и научно-популярная литература Ольга Юрьевна Полянская | Инфраструктуры открытых ключей [2007] [FB2] UndegraundMen
1 | 0

0 | 547

0

2013-06-25 04:34
UndegraundMen Latest
Display posts from previous:    
Reply to topic

The time now is: Today 11:20

All times are GMT + 3 Hours



You cannot post new topics in this forum
You cannot reply to topics in this forum
You cannot edit your posts in this forum
You cannot delete your posts in this forum
You cannot vote in polls in this forum
You cannot attach files in this forum
You cannot download files in this forum