Today is a free download without charge Download

Мамины дети / Mother's Boys (Ив Симоно / Yves Simoneau) [1994, США, Триллер, драма, BDRip 720p] MVO + Original Eng

Reply to topic
 
Author
Message

Omen ®

Longevity: 8 years 5 months

Posts: 181087

Торрент-статистика

Post 19-May-2013 16:19

[Quote]

Мамины дети / Маменькины сынки / Mother's Boys
Страна: США
Жанр: Триллер, драма
Год выпуска: 1994
Продолжительность: 01:35:35
Перевод: Профессиональный (многоголосый закадровый)
Cубтитры: нет
Оригинальная аудиодорожка: английский
Режиссер: Ив Симоно / Yves Simoneau
В ролях: Джейми Ли Кёртис, Питер Галлахер, Джоанн Уолли, Ванесса Редгрейв, Люк Эдвардс, Колин Уорд, Джои Зиммерман, Джосс Экленд, Пол Гилфойл, Дж.Э. Фримен
Описание: Tри года назад Джуд Мэдиган оставила своего мужа и троих сыновей без каких-либо объяснений. Теперь она появилась вновь и хочет вернуть прошлое обратно. Ее не волнует, что у Роберта другая женщина и любовь угасла давно. Ведь есть много способов изменить чужую жизнь. Пусть диких и беспощадных. Но она использует их все!
Сэмпл
Тип релиза: BDRip 720p
Контейнер: MKV
Видео: MPEG-4 AVC; 1280x720; 6200 Kbps; 23,976 fps
Аудио 1: Russian: AC3; 384 Kbps; 6 ch; 48 khz
Аудио 2: English: DTS; 1510 kbps 2 ch; 48 kHz; 24-bit

MediaInfo

General
Unique ID : 222680693694043414198703493631713183514 (0xA786BDD9A4C3F558A4658342CD1B871A)
Complete name : Mother's.Boys.1994.BDRip720p.mkv
Format : Matroska
Format version : Version 4 / Version 2
File size : 5.40 GiB
Duration : 1h 35mn
Overall bit rate : 8 089 Kbps
Movie name : Mother's.Boys.1994 BDA
Encoded date : UTC 2013-05-18 17:51:59
Writing application : mkvmerge v6.2.0 ('Promised Land') built on Apr 28 2013 12:22:01
Writing library : libebml v1.3.0 + libmatroska v1.4.0
Video
ID : 1
Format : AVC
Format/Info : Advanced Video Codec
Format profile : [email protected]
Format settings, CABAC : Yes
Format settings, ReFrames : 8 frames
Codec ID : V_MPEG4/ISO/AVC
Duration : 1h 35mn
Bit rate : 6 200 Kbps
Width : 1 280 pixels
Height : 720 pixels
Display aspect ratio : 16:9
Frame rate mode : Constant
Frame rate : 23.976 fps
Color space : YUV
Chroma subsampling : 4:2:0
Bit depth : 8 bits
Scan type : Progressive
Bits/(Pixel*Frame) : 0.281
Stream size : 4.03 GiB (75%)
Title : Mother's.Boys.1994
Writing library : x264 core 130 r2273 b3065e6
Encoding settings : cabac=1 / ref=8 / deblock=1:-3:-3 / analyse=0x3:0x133 / me=umh / subme=9 / psy=1 / psy_rd=1.00:0.00 / mixed_ref=1 / me_range=24 / chroma_me=1 / trellis=2 / 8x8dct=1 / cqm=0 / deadzone=21,11 / fast_pskip=1 / chroma_qp_offset=-2 / threads=12 / lookahead_threads=1 / sliced_threads=0 / nr=0 / decimate=1 / interlaced=0 / bluray_compat=0 / constrained_intra=0 / bframes=3 / b_pyramid=2 / b_adapt=2 / b_bias=0 / direct=3 / weightb=1 / open_gop=0 / weightp=2 / keyint=240 / keyint_min=23 / scenecut=40 / intra_refresh=0 / rc_lookahead=60 / rc=2pass / mbtree=1 / bitrate=6200 / ratetol=1.0 / qcomp=0.60 / qpmin=10 / qpmax=51 / qpstep=4 / cplxblur=20.0 / qblur=0.5 / vbv_maxrate=40000 / vbv_bufsize=40000 / nal_hrd=none / ip_ratio=1.40 / aq=1:1.00
Language : English
Default : Yes
Forced : No
Audio #1
ID : 2
Format : AC-3
Format/Info : Audio Coding 3
Mode extension : CM (complete main)
Format settings, Endianness : Big
Codec ID : A_AC3
Duration : 1h 35mn
Bit rate mode : Constant
Bit rate : 384 Kbps
Channel(s) : 6 channels
Channel positions : Front: L C R, Side: L R, LFE
Sampling rate : 48.0 KHz
Bit depth : 16 bits
Compression mode : Lossy
Stream size : 263 MiB (5%)
Language : Russian
Default : Yes
Forced : No
Audio #2
ID : 3
Format : DTS
Format/Info : Digital Theater Systems
Mode : 16
Format settings, Endianness : Big
Codec ID : A_DTS
Duration : 1h 35mn
Bit rate mode : Constant
Bit rate : 1 509 Kbps
Channel(s) : 2 channels
Channel positions : Front: L R
Sampling rate : 48.0 KHz
Bit depth : 24 bits
Compression mode : Lossy
Stream size : 1.01 GiB (19%)
Language : English
Default : No
Forced : No
Menu
00:00:00.000 : en:00:00:00.000
00:08:16.579 : en:00:08:16.579
00:16:49.175 : en:00:16:49.175
00:26:49.274 : en:00:26:49.274
00:33:28.381 : en:00:33:28.381
00:40:15.538 : en:00:40:15.538
00:48:51.095 : en:00:48:51.095
00:56:46.737 : en:00:56:46.737
01:06:34.490 : en:01:06:34.490
01:12:33.933 : en:01:12:33.933
01:21:10.491 : en:01:21:10.491
01:32:14.946 : en:01:32:14.946

Скриншоты


x264

---[NoImage] x264 [info]: frame I:1159 Avg QP:19.44 size:101351
---[NoImage] x264 [info]: frame P:39024 Avg QP:22.26 size: 44803
---[NoImage] x264 [info]: frame B:97322 Avg QP:23.36 size: 26450
---[NoImage] x264 [info]: consecutive B-frames: 1.5% 2.7% 29.4% 66.4%
---[NoImage] x264 [info]: mb I I16..4: 3.8% 88.6% 7.6%
---[NoImage] x264 [info]: mb P I16..4: 0.7% 6.7% 0.4% P16..4: 44.9% 25.8% 17.1% 0.2% 0.0% skip: 4.1%
---[NoImage] x264 [info]: mb B I16..4: 0.0% 1.2% 0.0% B16..8: 55.9% 16.7% 6.2% direct: 5.8% skip:14.2% L0:46.4% L1:45.9% BI: 7.7%
---[NoImage] x264 [info]: 8x8 transform intra:88.2% inter:62.7%
---[NoImage] x264 [info]: direct mvs spatial:23.5% temporal:76.5%
---[NoImage] x264 [info]: coded y,uvDC,uvAC intra: 92.6% 54.9% 15.9% inter: 48.8% 21.7% 0.4%
---[NoImage] x264 [info]: i16 v,h,dc,p: 41% 15% 11% 33%
---[NoImage] x264 [info]: i8 v,h,dc,ddl,ddr,vr,hd,vl,hu: 7% 5% 6% 12% 17% 15% 14% 12% 11%
---[NoImage] x264 [info]: i4 v,h,dc,ddl,ddr,vr,hd,vl,hu: 10% 5% 2% 11% 17% 17% 14% 13% 12%
---[NoImage] x264 [info]: i8c dc,h,v,p: 41% 24% 19% 16%
---[NoImage] x264 [info]: Weighted P-Frames: Y:5.9% UV:1.2%
---[NoImage] x264 [info]: ref P L0: 35.9% 9.7% 19.0% 9.5% 8.0% 6.6% 6.0% 3.9% 1.2% 0.0%
---[NoImage] x264 [info]: ref B L0: 57.9% 17.7% 10.1% 5.6% 4.5% 3.0% 1.3%
---[NoImage] x264 [info]: ref B L1: 88.1% 11.9%
---[NoImage] x264 [info]: kb/s:6193.43
---[NoImage] encoded 137505 frames, 6.36 fps, 6193.43 kb/s
Other forum [Profile] [PM]
Display posts from previous:    
Reply to topic

The time now is: Today 02:52

All times are GMT + 3 Hours



You cannot post new topics in this forum
You cannot reply to topics in this forum
You cannot edit your posts in this forum
You cannot delete your posts in this forum
You cannot vote in polls in this forum
You cannot attach files in this forum
You cannot download files in this forum