Today is a free download without charge Download

Judas Priest - British Steel Live (30th Anniversary Deluxe Edition) [2010, Heavy Metal, HDTV 720p]

Reply to topic
 
Author
Message

Omen ®

Longevity: 8 years 3 months

Posts: 181087

Торрент-статистика

Post 19-May-2013 04:04

[Quote]

Judas Priest - British Steel Live (30th Anniversary Deluxe Edition)- Жанр: Heavy Metal
Продолжительность: 00:56:09
Год выпуска: 2010-Треклист:
01. Rapid Fire
02. Metal Gods
03. Breaking The Law
04. Grinder
05. United
06. You Don't Have To Be Old To Be Wise
07. Living After Midnight
08. The Rage
09. Steeler
10. The Ripper
11. Hell Patrol
12. Victim Of Changes
13. Freewheel Burning-Качество: HDTV 720p
Контейнер: MKV
Видео кодек: H.264
Аудио кодек: AC3
Видео: MPEG-4 AVC 7807 Kbps / 1280*720 / 29,970 fps / 16:9 /
Аудио: AC3 5.1 / 48 kHz / 384 kbps
Субтитры: Английские

x264 log

-[NoImage] avs [info]: 1280x720p 1:1 @ 30000/1001 fps (cfr)
-[NoImage] x264 [info]: using SAR=1/1
-[NoImage] x264 [info]: using cpu capabilities: MMX2 SSE2Fast SSSE3 SSE4.2 AVX
-[NoImage] x264 [info]: profile High, level 4.1
-[NoImage]
-[NoImage] x264 [info]: frame I:877 Avg QP:18.70 size: 98980
-[NoImage] x264 [info]: frame P:24354 Avg QP:19.85 size: 56310
-[NoImage] x264 [info]: frame B:75765 Avg QP:21.83 size: 25069
-[NoImage] x264 [info]: consecutive B-frames: 2.1% 2.4% 12.0% 37.1% 21.2% 23.6% 1.5%
-[NoImage] x264 [info]: mb I I16..4: 3.7% 81.1% 15.2%
-[NoImage] x264 [info]: mb P I16..4: 2.9% 23.6% 3.4% P16..4: 41.6% 18.7% 9.0% 0.3% 0.1% skip: 0.4%
-[NoImage] x264 [info]: mb B I16..4: 0.4% 2.1% 0.4% B16..8: 44.2% 14.5% 3.4% direct:14.4% skip:20.6% L0:40.7% L1:44.6% BI:14.8%
-[NoImage] x264 [info]: 8x8 transform intra:77.8% inter:70.4%
-[NoImage] x264 [info]: direct mvs spatial:100.0% temporal:0.0%
-[NoImage] x264 [info]: coded y,uvDC,uvAC intra: 85.6% 87.4% 67.5% inter: 43.2% 47.9% 8.5%
-[NoImage] x264 [info]: i16 v,h,dc,p: 19% 11% 12% 58%
-[NoImage] x264 [info]: i8 v,h,dc,ddl,ddr,vr,hd,vl,hu: 7% 6% 4% 11% 16% 14% 15% 12% 14%
-[NoImage] x264 [info]: i4 v,h,dc,ddl,ddr,vr,hd,vl,hu: 8% 7% 3% 10% 16% 14% 15% 12% 16%
-[NoImage] x264 [info]: i8c dc,h,v,p: 44% 23% 17% 16%
-[NoImage] x264 [info]: Weighted P-Frames: Y:17.4% UV:13.7%
-[NoImage] x264 [info]: ref P L0: 45.8% 10.0% 17.6% 6.9% 5.3% 4.1% 3.8% 2.8% 2.9% 0.8% 0.1%
-[NoImage] x264 [info]: ref B L0: 79.5% 10.7% 3.9% 2.0% 1.4% 1.2% 0.8% 0.4%
-[NoImage] x264 [info]: ref B L1: 94.3% 5.7%
-[NoImage] x264 [info]: kb/s:7970.61
-[NoImage] encoded 100996 frames, 3.50 fps, 7970.61 kb/s

Отчёт MediaInfo / BDInfo

Код:
General
Unique ID                                : 238827052728874271035195637503290890350 (0xB3AC6AD01C8875919A92988AC871D86E)
Complete name                            : E:\Judas Priest Live British Steel 30th Anniversary Special 2009 HDTVRip720p DD5.1.mkv
Format                                   : Matroska
Format version                           : Version 4 / Version 2
File size                                : 3.28 GiB
Duration                                 : 56mn 9s
Overall bit rate                         : 8 357 Kbps
Encoded date                             : UTC 2013-05-13 17:00:43
Writing application                      : mkvmerge v6.1.0 ('Old Devil') built on Mar  2 2013 14:32:37
Writing library                          : libebml v1.3.0 + libmatroska v1.4.0
Video
ID                                       : 1
Format                                   : AVC
Format/Info                              : Advanced Video Codec
Format profile                           : [email protected]
Format settings, CABAC                   : Yes
Format settings, ReFrames                : 9 frames
Codec ID                                 : V_MPEG4/ISO/AVC
Duration                                 : 56mn 9s
Bit rate                                 : 7 807 Kbps
Width                                    : 1 280 pixels
Height                                   : 720 pixels
Display aspect ratio                     : 16:9
Frame rate mode                          : Constant
Frame rate                               : 29.970 fps
Color space                              : YUV
Chroma subsampling                       : 4:2:0
Bit depth                                : 8 bits
Scan type                                : Progressive
Bits/(Pixel*Frame)                       : 0.283
Stream size                              : 3.06 GiB (93%)
Writing library                          : x264 core 130 r2273 b3065e6
Encoding settings                        : cabac=1 / ref=9 / deblock=1:-3:-3 / analyse=0x3:0x133 / me=umh / subme=9 / psy=1 / psy_rd=1.00:0.00 / mixed_ref=1 / me_range=24 / chroma_me=1 / trellis=2 / 8x8dct=1 / cqm=0 / deadzone=21,11 / fast_pskip=0 / chroma_qp_offset=-2 / threads=12 / lookahead_threads=1 / sliced_threads=0 / nr=0 / decimate=1 / interlaced=0 / bluray_compat=0 / constrained_intra=0 / bframes=6 / b_pyramid=2 / b_adapt=2 / b_bias=0 / direct=3 / weightb=1 / open_gop=0 / weightp=2 / keyint=300 / keyint_min=29 / scenecut=40 / intra_refresh=0 / rc_lookahead=60 / rc=crf / mbtree=0 / crf=19.0 / qcomp=0.60 / qpmin=0 / qpmax=69 / qpstep=4 / vbv_maxrate=30000 / vbv_bufsize=40000 / crf_max=0.0 / nal_hrd=none / ip_ratio=1.40 / pb_ratio=1.30 / aq=1:1.00
Language                                 : English
Default                                  : Yes
Forced                                   : No
Color primaries                          : BT.709
Transfer characteristics                 : BT.709
Matrix coefficients                      : BT.709
Audio
ID                                       : 2
Format                                   : AC-3
Format/Info                              : Audio Coding 3
Mode extension                           : CM (complete main)
Format settings, Endianness              : Big
Codec ID                                 : A_AC3
Duration                                 : 56mn 9s
Bit rate mode                            : Constant
Bit rate                                 : 384 Kbps
Channel(s)                               : 6 channels
Channel positions                        : Front: L C R, Side: L R, LFE
Sampling rate                            : 48.0 KHz
Bit depth                                : 16 bits
Compression mode                         : Lossy
Delay relative to video                  : 7ms
Stream size                              : 154 MiB (5%)
Language                                 : English
Default                                  : Yes
Forced                                   : No
Text
ID                                       : 3
Format                                   : UTF-8
Codec ID                                 : S_TEXT/UTF8
Codec ID/Info                            : UTF-8 Plain Text
Language                                 : English
Default                                  : Yes
Forced                                   : No

Скриншоты

Other forum [Profile] [PM]
Display posts from previous:    
Reply to topic

The time now is: Today 17:04

All times are GMT + 3 Hours



You cannot post new topics in this forum
You cannot reply to topics in this forum
You cannot edit your posts in this forum
You cannot delete your posts in this forum
You cannot vote in polls in this forum
You cannot attach files in this forum
You cannot download files in this forum