Today is a free download without charge Download

Elzevir - Rise From Knees (2011) [FLAC|Lossless]<Melodic Death Metal>

Reply to topic
 
Author
Message

UndegraundMen ®

Longevity: 7 years 8 months

Posts: 25145

Торрент-статистика

Post 19-May-2013 00:02

[Quote]

Elzevir - Rise From Knees (2011)- Год: 2011
Жанр: Melodic Death Metal
Label & Catalog#: Metal Renaissance - MR 11-04
Продолжительность: 00:35:55
Кодек: FLAC
Битрейт: Lossless
Трек лист:
01. We Must Win [03:31]
02. Firebirth [03:16]
03. Mind Eclipse [03:38]
04. Insanity [03:09]
05. Red 20 [02:21]
06. Rain Of That Day [03:41]
07. Forgive Me [02:40]
08. Like Immortal [03:19]
09. Our Simple Plan [03:04]
10. Dragoncatcher [03:21]
11. My Hope [03:52]

cue&#58;

REM GENRE "Melodic Death Metal"
REM DATE 2011
REM DISCID 9C086B0B
REM COMMENT "ExactAudioCopy v1.0b2"
PERFORMER "Elzevir"
TITLE "Rise From Knees"
FILE "Elzevir - Rise From Knees.flac" WAVE
TRACK 01 AUDIO
  • TITLE "We Must Win"
  • PERFORMER "Elzevir"
  • FLAGS DCP
  • INDEX 01 00:00:00
    TRACK 02 AUDIO
  • TITLE "Firebirth"
  • PERFORMER "Elzevir"
  • FLAGS DCP
  • INDEX 00 03:29:06
  • INDEX 01 03:31:06
    TRACK 03 AUDIO
  • TITLE "Mind Eclipse"
  • PERFORMER "Elzevir"
  • FLAGS DCP
  • INDEX 00 06:45:24
  • INDEX 01 06:47:24
    TRACK 04 AUDIO
  • TITLE "Insanity"
  • PERFORMER "Elzevir"
  • FLAGS DCP
  • INDEX 00 10:23:56
  • INDEX 01 10:25:56
    TRACK 05 AUDIO
  • TITLE "Red 20"
  • PERFORMER "Elzevir"
  • FLAGS DCP
  • INDEX 00 13:33:09
  • INDEX 01 13:35:09
    TRACK 06 AUDIO
  • TITLE "Rain Of That Day"
  • PERFORMER "Elzevir"
  • FLAGS DCP
  • INDEX 00 15:54:37
  • INDEX 01 15:56:37
    TRACK 07 AUDIO
  • TITLE "Forgive Me"
  • PERFORMER "Elzevir"
  • FLAGS DCP
  • INDEX 00 19:35:59
  • INDEX 01 19:37:59
    TRACK 08 AUDIO
  • TITLE "Like Immortal"
  • PERFORMER "Elzevir"
  • FLAGS DCP
  • INDEX 00 22:15:65
  • INDEX 01 22:17:65
    TRACK 09 AUDIO
  • TITLE "Our Simple Plan"
  • PERFORMER "Elzevir"
  • FLAGS DCP
  • INDEX 00 25:35:11
  • INDEX 01 25:37:11
    TRACK 10 AUDIO
  • TITLE "Dragoncatcher"
  • PERFORMER "Elzevir"
  • FLAGS DCP
  • INDEX 00 28:39:55
  • INDEX 01 28:41:55
    TRACK 11 AUDIO
  • TITLE "My Hope"
  • PERFORMER "Elzevir"
  • FLAGS DCP
  • INDEX 00 32:01:08
  • INDEX 01 32:03:08

Отчёт ЕАС&#58;

Код:
Exact Audio Copy V1.0 beta 2 from 29. April 2011
EAC extraction logfile from 3. September 2011, 1:01
Elzevir / Rise From Knees
Used drive  : Optiarc DVD RW AD-7173A   Adapter: 1  ID: 0
Read mode               : Secure
Utilize accurate stream : Yes
Defeat audio cache      : Yes
Make use of C2 pointers : No
Read offset correction                      : 48
Overread into Lead-In and Lead-Out          : No
Fill up missing offset samples with silence : Yes
Delete leading and trailing silent blocks   : No
Null samples used in CRC calculations       : Yes
Used interface                              : Native Win32 interface for Win NT & 2000
Used output format              : User Defined Encoder
Selected bitrate                : 1024 kBit/s
Quality                         : High
Add ID3 tag                     : Yes
Command line compressor         : C:\Program Files (x86)\Exact Audio Copy\Flac\flac.exe
Additional command line options : -6 -V %source%
TOC of the extracted CD
     Track |   Start  |  Length  | Start sector | End sector
    ---------------------------------------------------------
        1  |  0:00.00 |  3:31.06 |         0    |    15830
        2  |  3:31.06 |  3:16.18 |     15831    |    30548
        3  |  6:47.24 |  3:38.32 |     30549    |    46930
        4  | 10:25.56 |  3:09.28 |     46931    |    61133
        5  | 13:35.09 |  2:21.28 |     61134    |    71736
        6  | 15:56.37 |  3:41.22 |     71737    |    88333
        7  | 19:37.59 |  2:40.06 |     88334    |   100339
        8  | 22:17.65 |  3:19.21 |    100340    |   115285
        9  | 25:37.11 |  3:04.44 |    115286    |   129129
       10  | 28:41.55 |  3:21.28 |    129130    |   144232
       11  | 32:03.08 |  3:52.35 |    144233    |   161667
Range status and errors
Selected range
     Filename C:\Users\Beast\Desktop\Elzevir - Rise From Knees.wav
     Peak level 100.0 %
     Extraction speed 4.5 X
     Range quality 100.0 %
     Test CRC 3B0B8EB1
     Copy CRC 3B0B8EB1
     Copy OK
No errors occurred
AccurateRip summary
Track  1  not present in database
Track  2  not present in database
Track  3  not present in database
Track  4  not present in database
Track  5  not present in database
Track  6  not present in database
Track  7  not present in database
Track  8  not present in database
Track  9  not present in database
Track 10  not present in database
Track 11  not present in database
None of the tracks are present in the AccurateRip database
End of status report
==== Log checksum 4C54A4DEEE99B5C8272A81050B86987FDD0E2C02F3742C3F7ED05EC97D0C8624 ====

Отчёт auCDtect Task manager&#58;

Код:
DON'T MODIFY THIS FILE
-----------------------
PERFORMER: auCDtect Task Manager, ver. 1.5.1RC6 build 1.5.1.7
Copyright (c) 2008-2010 y-soft. All rights reserved
http://y-soft.org
ANALYZER: auCDtect: CD records authenticity detector, version 0.8.2
Copyright (c) 2004 Oleg Berngardt. All rights reserved.
Copyright (c) 2004 Alexander Djourik. All rights reserved.
FILE: Elzevir - Rise From Knees.flac
  Size: 301192213 Hash: 6442B8AD28216E5E9C9AAA24EBF8026D Accuracy: -m0
  Conclusion: CDDA 99%
  Signature: 5392AF0A64440FB9903D563BA8DB0D0A2CC70B15
Other forum [Profile] [PM]
Display posts from previous:    
Reply to topic

The time now is: Today 14:45

All times are GMT + 3 Hours



You cannot post new topics in this forum
You cannot reply to topics in this forum
You cannot edit your posts in this forum
You cannot delete your posts in this forum
You cannot vote in polls in this forum
You cannot attach files in this forum
You cannot download files in this forum