Today is a free download without charge Download

Музей восковых фигур 2: Затерянные во времени / Waxworks 2: Lost in time (1992) HDTVRip [H.264/720p-LQ]

Reply to topic
 
Author
Message

UndegraundMen ®

Longevity: 7 years 8 months

Posts: 25145

Торрент-статистика

Post 19-May-2013 00:02

[Quote]

Музей восковых фигур 2: Затерянные во времени / Waxworks 2: Lost in time (1992) HDTVRip- Русское название: Музей восковых фигур 2: Затерянные во времени
Оригинальное название: Waxworks 2: Lost in time
Производство: Contemporary Films / США
Год выпуска: 1992
Жанр: Фантастика, Ужасы, Комедия-Описание фильма:
Музей восковых фигур и его зловещие обитатели уничтожены в пламени пожара. Но так ли это? Выбравшись из горящего здания, Марк и Сара не заметили, как отрубленная рука увязалась за ними и жестоко убила ее отчима. Но никто не верит рассказам о Музее восковых фигур, и Саре предъявлено обвинение в убийстве. Тогда Марк и Сара через временной портал проникают в другие миры и измерения, где вступают в сражения с многочисленными силами зла - от Франкенштейна и Джека-потрошителя, до вампиров и живых мертвецов. Только так они смогут доказать невиновность Сары...-Режиссер: Энтони Хикокс
Актеры: Зак Гэллиган, Моника Шнарре, Мартин Кемп, Брюс Кэмпбелл, Джим Мецлер, Софи Уорд, Марина Сиртис, Джон Айрлэнд, Патрик МакНи, Александр Годунов, Энтони Хикокс, Дрю Бэрримор, Дэвид Кэррадайн-Продолжительность: 01:44:19
Перевод: Профессиональный (многоголосый закадровый) ТНТ + Авторский (одноголосый закадровый) С.Визгунов
Оригинальная аудиодорожка: английский
Язык субтитров: отсутствуют- -Видеокодек: MPEG-4 AVC/H.264
Битрейт видео: ~3580 Kbps
Размер кадра: 1280x720p
Качество видео: HDTVRip-Аудио 1: Русский AC3 2.0 192 Kbps 48,0 КГц | ТНТ
Аудио 2: Русский AC3 2.0 192 Kbps 48,0 КГц | Визгунов
Аудио 3: Английский АС3 2.0 192 Kbps 48,0 КГц
-

MediaInfo:

General
Complete name : E:\NMN Club\Waxwork.2.Lost.in.Time.1992.720p.HDTVRip.2xRus.Eng.mkv
Format : Matroska
File size : 3.09 GiB
Duration : 1h 44mn
Overall bit rate : 4 241 Kbps
Encoded date : UTC 2013-04-27 15:05:47
Writing application : mkvmerge v6.1.0 ('Old Devil') built on Mar 2 2013 14:32:37
Writing library : libebml v1.3.0 + libmatroska v1.4.0
Video
ID : 1
Format : AVC
Format/Info : Advanced Video Codec
Format profile : [url=mailto:[email protected]][email protected][/url]
Format settings, CABAC : Yes
Format settings, ReFrames : 5 frames
Muxing mode : Container [email protected]
Codec ID : V_MPEG4/ISO/AVC
Duration : 1h 44mn
Bit rate : 3 580 Kbps
Width : 1 280 pixels
Height : 720 pixels
Display aspect ratio : 16:9
Frame rate : 23.976 fps
Resolution : 8 bits
Colorimetry : 4:2:0
Scan type : Progressive
Bits/(Pixel*Frame) : 0.162
Stream size : 2.61 GiB (84%)
Title : waxwork.2.lost.in.time.1992.720p.hdtv.x264
Writing library : x264 core 130 r2273 b3065e6
Encoding settings : cabac=1 / ref=5 / deblock=1:0:0 / analyse=0x3:0x113 / me=umh / subme=8 / psy=1 / psy_rd=1.00:0.00 / mixed_ref=1 / me_range=16 / chroma_me=1 / trellis=1 / 8x8dct=1 / cqm=0 / deadzone=21,11 / fast_pskip=1 / chroma_qp_offset=-2 / threads=18 / lookahead_threads=3 / sliced_threads=0 / nr=0 / decimate=1 / interlaced=0 / bluray_compat=0 / constrained_intra=0 / bframes=3 / b_pyramid=2 / b_adapt=2 / b_bias=0 / direct=3 / weightb=1 / open_gop=0 / weightp=2 / keyint=250 / keyint_min=23 / scenecut=40 / intra_refresh=0 / rc_lookahead=50 / rc=crf / mbtree=1 / crf=18.0 / qcomp=0.60 / qpmin=0 / qpmax=69 / qpstep=4 / ip_ratio=1.40 / aq=1:1.00
Matrix coefficients : BT.709-5, BT.1361, IEC 61966-2-4 709, SMPTE RP177
Audio #1
ID : 2
Format : AC-3
Format/Info : Audio Coding 3
Codec ID : A_AC3
Duration : 1h 44mn
Bit rate mode : Constant
Bit rate : 192 Kbps
Channel(s) : 2 channels
Channel positions : L R
Sampling rate : 48.0 KHz
Stream size : 143 MiB (5%)
Title : TNT AC3 2.0 192 kbps
Language : Russian
Audio #2
ID : 3
Format : AC-3
Format/Info : Audio Coding 3
Codec ID : A_AC3
Duration : 1h 44mn
Bit rate mode : Constant
Bit rate : 192 Kbps
Channel(s) : 2 channels
Channel positions : L R
Sampling rate : 48.0 KHz
Stream size : 143 MiB (5%)
Title : Vizgunov AC3 2.0 192 kbps
Language : Russian
Audio #3
ID : 4
Format : AC-3
Format/Info : Audio Coding 3
Codec ID : A_AC3
Duration : 1h 44mn
Bit rate mode : Constant
Bit rate : 192 Kbps
Channel(s) : 2 channels
Channel positions : L R
Sampling rate : 48.0 KHz
Stream size : 143 MiB (5%)
Title : Original AC3 2.0 192 kbps
-Скриншоты:
             
Время раздачи: 24/7 - круглосуточно
Благодарности, а также конструктивное обсуждение раздачи способствует ее долгожительству и вдохновляет автора на создание новых.
Other forum [Profile] [PM]
Display posts from previous:    
Reply to topic

The time now is: Today 11:46

All times are GMT + 3 Hours



You cannot post new topics in this forum
You cannot reply to topics in this forum
You cannot edit your posts in this forum
You cannot delete your posts in this forum
You cannot vote in polls in this forum
You cannot attach files in this forum
You cannot download files in this forum