Today is a free download without charge Download

После войны-мир (1988) DVDRip

Reply to topic
 
Author
Message

UndegraundMen ®

Longevity: 7 years 8 months

Posts: 25145

Торрент-статистика

Post 19-May-2013 00:02

[Quote]

После войны-мир (1988) DVDRip- Русское название: После войны-мир
Год выпуска: 1988
Жанр: Драма
Выпущено: СССР, Киностудия им. Горького
Описание фильма:
В первые послевоенные годы в небольшом шахтерском поселке под Тулой живут в основном женщины и подростки. Матери наравне с мужчинами работают в шахте. Дети живут своей жизнью и зависимы от семнадцатилетнего уголовника по прозвищу Зверь. Он всем недоволен, его все боятся и стараются с ним не связываться.
Режиссер: Анатолий Никитин
Актеры: Александр Куличков, Олег Моторин, Юрий Назаров, Виталий Базин, Людмила Давыдова, Алексей Серебряков, Геннадий Воронин, Александр Карин, Николай Сектименко, Наталья Смолянинова
Продолжительность: 01:11:41

Видеокодек: Xvid
Битрейт видео: ~1982 Кбит/с
Размер кадра: 688 x 464
Качество видео: DVDRip
Аудиокодек: MP3 2.0
Битрейт аудио: 128 Кбит/с

MediaInfo

Общее
Полное имя : После войны-мир.avi
Формат : AVI
Формат/Информация : Audio Video Interleave
Размер файла : 1,09 Гбайт
Продолжительность : 1 ч. 11 м.
Общий поток : 2180 Кбит/сек
Программа кодирования : VirtualDubMod 1.5.10.3 | www.virtualdub-fr.org || (build 2550/release)
Библиотека кодирования : VirtualDubMod build 2550/release
Видео
Идентификатор : 0
Формат : MPEG-4 Visual
Профиль формата : Advanced [email protected]
Параметр BVOP формата : 2
Параметр QPel формата : Нет
Параметр GMC формата : Без точки перехода
Параметр матрицы формата : Default (MPEG)
Идентификатор кодека : XVID
Идентификатор кодека/Подсказка : XviD
Продолжительность : 1 ч. 11 м.
Битрейт : 1979 Кбит/сек
Ширина : 688 пикселей
Высота : 464 пикселя
Соотношение сторон : 3:2
Частота кадров : 23,976 кадра/сек
Цветовое пространство : YUV
Субдискретизация насыщенности : 4:2:0
Битовая глубина : 8 бит
Тип развёртки : Прогрессивная
Метод сжатия : С потерями
Бит/(Пиксели*Кадры) : 0.259
Размер потока : 1015 Мбайт (91%)
Библиотека кодирования : XviD 1.2.1 (UTC 2008-12-04)
Аудио
Идентификатор : 1
Формат : AC-3
Формат/Информация : Audio Coding 3
Расширение режима : CM (complete main)
Параметр Endianness формата : Big
Идентификатор кодека : 2000
Продолжительность : 1 ч. 11 м.
Вид битрейта : Постоянный
Битрейт : 192 Кбит/сек
Каналы : 2 канала
Расположение каналов : Front: L R
Частота : 48,0 КГц
Битовая глубина : 16 бит
Метод сжатия : С потерями
Размер потока : 98,4 Мбайт (9%)
Выравнивание : Разделение по промежуткам
Продолжительность промежутка : 42 мс. (1,00 видеокадр)
Время предзагрузки промежутка : 500 мс.
Скриншоты:          Время раздачи: С 13:00 до 21:00 (до 5 скачавших)Приятного просмотра!
Other forum [Profile] [PM]
Display posts from previous:    
Reply to topic

The time now is: Today 10:07

All times are GMT + 3 Hours



You cannot post new topics in this forum
You cannot reply to topics in this forum
You cannot edit your posts in this forum
You cannot delete your posts in this forum
You cannot vote in polls in this forum
You cannot attach files in this forum
You cannot download files in this forum