Today is a free download without charge Download

Дом восходящего солнца / House of the Rising Sun (Брайан Миллер, Брайан А Миллер / Brian Miller, Brian A Miller) [2011, США, боевик, триллер, драма, криминал,Blu-Ray Remux (1080p) ]

Reply to topic
 
Author
Message

nsa1977 ®

Gender:

Longevity: 9 years 5 months

Posts: 1470

Location: Пенза

Торрент-статистика

Post 01-Aug-2011 16:35

[Quote]

Дом восходящего солнца / House of the Rising Sun-
Страна: США
Жанр: боевик, триллер, драма, криминал
Год выпуска: 2011
Продолжительность: 1:27:36-Перевод: Любительский (двухголосый закадровый)
Cубтитры: английские (полные, SDH), испанские
Оригинальная аудиодорожка: английский--Режиссер: Брайан Миллер, Брайан А Миллер / Brian Miller, Brian A Miller-- --В ролях: Дэйв Батиста, Эми Смарт, Доминик Пурселл, Дэнни Трехо, Крэйг Фэйрбрасс, Брайан Вандер Арк, Рой Ораскин, Тим Филдс, Дебра Харрисон-Лоу, Лайл Кэйнаус--Описание: Рэй, экс-полицейский, начинает новую жизнь. Но однажды вечером, ночной клуб в котором он работает, ограблен, и сын владельца застрелен. Преступное прошлое Рэя делает его главным подозреваемым, и он начинает искать преступника что бы очистить свое имя.--Тип релиза: Blu-Ray Remux (1080p)
Контейнер: MKV
Видео: MPEG-4 AVC, 26.0 Мбит/с, 1920x1080, 23.976 кадр/с
Аудио 1: Russian: AC3 / 5.1 / 48 kHz / 448.00 kbps
Аудио 2: English: DTS-HD Master Audio / 5.1 / 48 kHz / 4185 kbps / 24-bit (DTS Core: 5.1 / 48 kHz / 1509 kbps / 24-bit)
Аудио 3: English: Dolby Digital Audio / 2.0 / 48 kHz / 224 kbps | Commentary with Director Brian A. Miller and Actor Dave Bautista
Формат субтитров: prerendered (Blu-ray/PGS/SUP)
Главы: есть--Sample-

Трейлер

MediaInfo

Код:
General
Unique ID                        : 218081499386688072182859026834730730618 (0xA410F8104A4B5E65B80DBF95B6BF447A)
Complete name                    : F:\Фильмы\House.of.the.Rising.Sun.2011.BDRemux.1080p.AVC.mkv
Format                           : Matroska
File size                        : 17.6 GiB
Duration                         : 1h 27mn
Overall bit rate                 : 28.8 Mbps
Encoded date                     : UTC 2011-07-27 14:44:39
Writing application              : mkvmerge v4.7.0 ('Just Like You Imagined') сборка от Apr 21 2011 01:13:14
Writing library                  : libebml v1.2.0 + libmatroska v1.1.0
Video
ID                               : 1
Format                           : AVC
Format/Info                      : Advanced Video Codec
Format profile                   : [email protected]
Format settings, CABAC           : Yes
Format settings, ReFrames        : 4 frames
Muxing mode                      : Container [email protected]
Codec ID                         : V_MPEG4/ISO/AVC
Duration                         : 1h 27mn
Bit rate mode                    : Variable
Bit rate                         : 26.0 Mbps
Maximum bit rate                 : 37.0 Mbps
Width                            : 1 920 pixels
Height                           : 1 080 pixels
Display aspect ratio             : 16:9
Frame rate                       : 23.976 fps
Color space                      : YUV
Chroma subsampling               : 4:2:0
Bit depth                        : 8 bits
Scan type                        : Progressive
Bits/(Pixel*Frame)               : 0.523
Stream size                      : 15.9 GiB (90%)
Title                            : House of the Rising Sun (2011)
Language                         : English
Audio #1
ID                               : 2
Format                           : AC-3
Format/Info                      : Audio Coding 3
Mode extension                   : CM (complete main)
Codec ID                         : A_AC3
Duration                         : 1h 27mn
Bit rate mode                    : Constant
Bit rate                         : 448 Kbps
Channel(s)                       : 6 channels
Channel positions                : Front: L C R, Side: L R, LFE
Sampling rate                    : 48.0 KHz
Bit depth                        : 16 bits
Compression mode                 : Lossy
Stream size                      : 281 MiB (2%)
Title                            : AC3, 448 kbps, 5.1 | DVO
Language                         : Russian
Audio #2
ID                               : 3
Format                           : DTS
Format/Info                      : Digital Theater Systems
Format profile                   : MA / Core
Codec ID                         : A_DTS
Duration                         : 1h 27mn
Bit rate mode                    : Variable
Bit rate                         : 1 561 Kbps / 1 510 Kbps
Channel(s)                       : 6 channels
Channel positions                : Front: L C R, Side: L R, LFE
Sampling rate                    : 48.0 KHz
Bit depth                        : 24 bits
Compression mode                 : Lossless / Lossy
Title                            : DTS-HA MA, 5.1
Language                         : English
Audio #3
ID                               : 7
Format                           : AC-3
Format/Info                      : Audio Coding 3
Mode extension                   : CM (complete main)
Codec ID                         : A_AC3
Duration                         : 1h 27mn
Bit rate mode                    : Constant
Bit rate                         : 224 Kbps
Channel(s)                       : 2 channels
Channel positions                : Front: L R
Sampling rate                    : 48.0 KHz
Bit depth                        : 16 bits
Compression mode                 : Lossy
Stream size                      : 140 MiB (1%)
Title                            : Commentary with Director Brian A. Miller and Actor Dave Bautista
Language                         : English
Text #1
ID                               : 4
Format                           : PGS
Muxing mode                      : zlib
Codec ID                         : S_HDMV/PGS
Codec ID/Info                    : The same subtitle format used on BDs/HD-DVDs
Language                         : English
Text #2
ID                               : 5
Format                           : PGS
Muxing mode                      : zlib
Codec ID                         : S_HDMV/PGS
Codec ID/Info                    : The same subtitle format used on BDs/HD-DVDs
Title                            : SDH
Language                         : English
Text #3
ID                               : 6
Format                           : PGS
Muxing mode                      : zlib
Codec ID                         : S_HDMV/PGS
Codec ID/Info                    : The same subtitle format used on BDs/HD-DVDs
Language                         : Spanish
Menu
00:00:00.000                     : en:Making Rounds
00:06:13.331                     : en:Stay Calm
00:12:54.065                     : en:Bring Them to Me
00:16:28.654                     : en:What You Saw
00:21:43.219                     : en:On the Inside
00:27:09.878                     : en:Not a Cop
00:32:07.884                     : en:Off My Back
00:37:27.454                     : en:Always a Dirty Cop
00:42:39.474                     : en:Making Choices
00:45:01.365                     : en:Need Your Help
00:48:09.053                     : en:One Chance
00:53:28.789                     : en:Tell Me
00:57:38.664                     : en:Something New
01:03:25.427                     : en:Inside Job
01:08:15.883                     : en:My Time
01:16:54.151                     : en:Saying Goodbye
         

_________________
Other forum [Profile] [PM]
Display posts from previous:    
Reply to topic

The time now is: Today 11:29

All times are GMT + 3 Hours



You cannot post new topics in this forum
You cannot reply to topics in this forum
You cannot edit your posts in this forum
You cannot delete your posts in this forum
You cannot vote in polls in this forum
You cannot attach files in this forum
You cannot download files in this forum