Today is a free download without charge Download

Red Hot Chili Peppers - Live at Bonnaroo Festival 2012 [2012, Funk Rock, HDTVRip 720p]

Reply to topic
 
Author
Message

Omen ®

Longevity: 8 years 3 months

Posts: 181087

Торрент-статистика

Post 18-May-2013 22:18

[Quote]

Red Hot Chili Peppers - Live at Bonnaroo Festival 2012- Жанр: Funk Rock
Продолжительность: 02:14:49
Год выпуска: 2012-Описание: Концерт на фестивале Bonnaroo в Great Stage Park, Manchester, Теннесси, 9 июня 2012 г.
Треклист:
01. Monarchy of Roses
02. Can't Stop
03. Dani California
04. Scar Tissue
05. Look Around
06. Throw Away Your Television
07. Charlie
08. The Adventures of Rain Dance Maggie
09. Right on Time
10. If You Have to Ask
11. Factory of Faith
12. Under the Bridge
13. Higher Ground (Stevie Wonder cover)
14. Californication
15. By the Way
Encore:
16. Chad & Mauro & Josh Jam
17. Suck My Kiss
18. Ethiopia
19. Give It Away
20. Final Jam-Качество: HDTVRip 720p
Контейнер: MKV
Видео кодек: H.264
Аудио кодек: MP2
Видео: 1276x720 (16:9), 4642 Kbps, 29,970 fps
Аудио: MP2, 384 Kbps, 2.0 ch, 48.0 KHz

Отчёт MediaInfo / BDInfo

GeneralUnique ID : 176389723003400768948781462658439404325 (0x84B36CC8F65BECAD9CA084D087D35B25)Complete name : D:\Red Hot Chilli Peppers Live At Bonnaroo 2012 HDTVRip 720p.mkvFormat : MatroskaFormat version : Version 4 / Version 2File size : 4.83 GiBDuration : 2h 14mnOverall bit rate : 5 128 KbpsEncoded date : UTC 2013-05-16 17:29:23Writing application : mkvmerge v6.1.0 ('Old Devil') built on Mar 2 2013 14:32:37Writing library : libebml v1.3.0 + libmatroska v1.4.0
VideoID : 1Format : AVCFormat/Info : Advanced Video CodecFormat profile : [email protected] settings, CABAC : YesFormat settings, ReFrames : 9 framesCodec ID : V_MPEG4/ISO/AVCDuration : 2h 14mnBit rate : 4 642 KbpsWidth : 1 276 pixelsHeight : 720 pixelsDisplay aspect ratio : 16:9Frame rate mode : ConstantFrame rate : 29.970 fpsColor space : YUVChroma subsampling : 4:2:0Bit depth : 8 bitsScan type : ProgressiveBits/(Pixel*Frame) : 0.169Stream size : 4.37 GiB (91%)Writing library : x264 core 130 r2273 b3065e6Encoding settings : cabac=1 / ref=9 / deblock=1:-3:-3 / analyse=0x3:0x133 / me=umh / subme=9 / psy=1 / psy_rd=1.00:0.05 / mixed_ref=1 / me_range=24 / chroma_me=1 / trellis=2 / 8x8dct=1 / cqm=0 / deadzone=21,11 / fast_pskip=0 / chroma_qp_offset=-3 / threads=12 / lookahead_threads=1 / sliced_threads=0 / nr=0 / decimate=1 / interlaced=0 / bluray_compat=0 / constrained_intra=0 / bframes=6 / b_pyramid=2 / b_adapt=2 / b_bias=0 / direct=3 / weightb=1 / open_gop=0 / weightp=2 / keyint=300 / keyint_min=29 / scenecut=40 / intra_refresh=0 / rc_lookahead=60 / rc=crf / mbtree=0 / crf=19.0 / qcomp=0.60 / qpmin=0 / qpmax=69 / qpstep=4 / vbv_maxrate=25000 / vbv_bufsize=31250 / crf_max=0.0 / nal_hrd=none / ip_ratio=1.40 / pb_ratio=1.30 / aq=1:1.00Language : EnglishDefault : YesForced : NoColor primaries : BT.709Transfer characteristics : BT.709Matrix coefficients : BT.709
AudioID : 2Format : MPEG AudioFormat version : Version 1Format profile : Layer 2Mode extension : Intensity Stereo + MS StereoCodec ID : A_MPEG/L2Codec ID/Hint : MP2Duration : 2h 14mnBit rate mode : ConstantBit rate : 384 KbpsChannel(s) : 2 channelsSampling rate : 48.0 KHzCompression mode : LossyDelay relative to video : 20msStream size : 370 MiB (7%)Title : MP2 2.0Language : EnglishDefault : YesForced : No

Скриншоты

Other forum [Profile] [PM]
Display posts from previous:    
Reply to topic

The time now is: Today 13:54

All times are GMT + 3 Hours



You cannot post new topics in this forum
You cannot reply to topics in this forum
You cannot edit your posts in this forum
You cannot delete your posts in this forum
You cannot vote in polls in this forum
You cannot attach files in this forum
You cannot download files in this forum