Today is a free download without charge Download

Белый тигр ( Карен Шахназаров ) (2012, военный ) [720p] BDRip

Reply to topic
 
Author
Message

Витек1 ®

Gender:

Longevity: 8 years 8 months

Posts: 451

Location: Житомир

Торрент-статистика

Post 18-May-2013 17:52

[Quote]

Белый тигр - Русское название: Белый тигр
Год выпуска: 2012
Жанр: военный
Перевод: Оригинальное [лицензия]
Субтитры: Отсутствуют-Режиссер: Карен Шахназаров
Актеры: Алексей Вертков, Виталий Кищенко, Валерий Гришко, Дмитрий Быковский-Ромашов, Герасим Архипов, Александр Вахов, Виталий Дорджиев, Владимир Ильин, Карл Кранцковски, Кристиан Редль
Описание фильма:
Вторая Мировая война подходит к концу. Тяжелые затяжные бои изматывают обе стороны. Но чем увереннее наступают советские войска, тем чаще на полях сражений появляется огромным неуязвимый немецкий танк «Белый Тигр». Внезапно возникает он в дыму сражений, безжалостно расстреливает своих противников и неожиданно исчезает. Советское командование решает для борьбы с «Белым Тигром» создать особый танк — специальную модель Т-34—85.-

Видео

Премьера (РФ): 3 мая 2012, «Каропрокат»
Релиз на DVD: 31 мая 2012, «Союз-Видео», ...
Релиз на Blu-Ray: 28 июня 2012, «Союз-Видео», ...-Продолжительность: 01:48:43
Качество видео: BDRip 720p
Контейнер: MKV
Видеокодек: MPEG-4 AVC / H.264
Битрейт видео: 4726 kbps
Размер кадра: 1280x690
Аудио: [Русский] DTS, 1510 kb/s (6 ch)-

MI

Общее
Уникальный идентификатор : 225255046790772176751329833437097522000 (0xA9768B41DF1BD7038594337F859A7350)
Полное имя : E:\Денис\Belyj.tigr.2012.O.BDRip.720p.mkv
Формат : Matroska
Версия формата : Version 2
Размер файла : 4,83 Гбайт
Продолжительность : 1 ч. 48 м.
Общий поток : 6362 Кбит/сек
Название фильма : IRONCLUB
Дата кодирования : UTC 2012-06-11 05:01:00
Программа кодирования : mkvmerge v4.9.1 ('Ich will') built on Jul 11 2011 23:53:15
Библиотека кодирования : libebml v1.2.1 + libmatroska v1.1.1
Видео
Идентификатор : 1
Формат : AVC
Формат/Информация : Advanced Video Codec
Профиль формата : [url=mailto:[email protected]][email protected][/url]
Параметр CABAC формата : Да
Параметр ReFrames формата : 9 кадров
Идентификатор кодека : V_MPEG4/ISO/AVC
Продолжительность : 1 ч. 48 м.
Битрейт : 4726 Кбит/сек
Ширина : 1280 пикселей
Высота : 690 пикселей
Соотношение сторон : 1,855
Частота кадров : 23,976 кадра/сек
Цветовое пространство : YUV
Субдискретизация насыщенности : 4:2:0
Битовая глубина : 8 бит
Тип развёртки : Прогрессивная
Бит/(Пиксели*Кадры) : 0.223
Размер потока : 3,59 Гбайт (74%)
Заголовок : Belyj tigr 2012 720p BluRay DTS x264-IRONCLUB
Библиотека кодирования : x264 core 120 r2164 da19765
Настройки программы : cabac=1 / ref=9 / deblock=1:-3:-3 / analyse=0x3:0x113 / me=umh / subme=10 / psy=1 / psy_rd=1.00:0.00 / mixed_ref=1 / me_range=48 / chroma_me=1 / trellis=2 / 8x8dct=1 / cqm=0 / deadzone=21,11 / fast_pskip=0 / chroma_qp_offset=-2 / threads=12 / sliced_threads=0 / nr=0 / decimate=1 / interlaced=0 / bluray_compat=0 / constrained_intra=0 / bframes=8 / b_pyramid=2 / b_adapt=2 / b_bias=0 / direct=3 / weightb=1 / open_gop=0 / weightp=2 / keyint=240 / keyint_min=22 / scenecut=40 / intra_refresh=0 / rc_lookahead=40 / rc=crf / mbtree=1 / crf=17.0 / qcomp=0.60 / qpmin=10 / qpmax=69 / qpstep=4 / vbv_maxrate=50000 / vbv_bufsize=62500 / crf_max=0.0 / nal_hrd=none / ip_ratio=1.40 / aq=1:1.00
Язык : Russian
Default : Да
Forced : Да
Коэффициенты матрицы : BT.709-5, BT.1361, IEC 61966-2-4 709, SMPTE RP177
Аудио
Идентификатор : 2
Формат : DTS
Формат/Информация : Digital Theater Systems
Идентификатор кодека : A_DTS
Продолжительность : 1 ч. 48 м.
Вид битрейта : Постоянный
Битрейт : 1510 Кбит/сек
Каналы : 6 каналов
Расположение каналов : Front: L C R, Side: L R, LFE
Частота : 48,0 КГц
Битовая глубина : 24 бит
Метод сжатия : С потерями
Размер потока : 1,15 Гбайт (24%)
Заголовок : DTS 5.1 @ 1536 kbps
Язык : Russian
Default : Да
Forced : Да
Меню
00:00:00.000 : :00:00:00.000
00:06:31.057 : :00:06:31.057
00:14:22.653 : :00:14:22.653
00:23:08.762 : :00:23:08.762
00:33:38.307 : :00:33:38.307
00:46:51.266 : :00:46:51.266
00:56:08.990 : :00:56:08.990
01:05:15.453 : :01:05:15.453
01:17:30.896 : :01:17:30.896
01:22:59.683 : :01:22:59.683
01:32:23.746 : :01:32:23.746
01:41:08.645 : :01:41:08.645
Скриншоты:
       

_________________
Скачал сам, дай скачать другому!!!Не забудь сказать -
Other forum [Profile] [PM]
Display posts from previous:    
Reply to topic

The time now is: Today 22:49

All times are GMT + 3 Hours



You cannot post new topics in this forum
You cannot reply to topics in this forum
You cannot edit your posts in this forum
You cannot delete your posts in this forum
You cannot vote in polls in this forum
You cannot attach files in this forum
You cannot download files in this forum